.
Авторизация | Регистрация
Хочешь лучшие торренты? Добавь свой email!
Добавить

Торрент скачать бесплатно

» » Карточный домик / House of Cards (2016) WEBRip [H.264 / 720p-LQ] (сезон 4, серии 1 из 13) Первый канал (обновляемая) торрент скачать бесплатно




    Карточный домик / House of Cards (2016) WEBRip [H.264 / 720p-LQ] (сезон 4, серии 1 из 13) Первый канал (обновляемая) торрент скачать бесплатно

    Опубликовал: Админ | Дата: 5-03-2016, 04:01 | Просмотров: 235

    Производство: США/Media Rights Capital, Panic Pictures (II), Trigger Street Productions
    Жанр: драма
    Режиссер: Джеймс Фоули, Джон Дэвид Коулз, Карл Франклин

    Актеры
    Кевин Спейси, Робин Райт, Кейт Мара, Кори Столл, Майкл Келли, Сакина Джэффри, Нэйтан Дарроу, Ламонт Истер, Махершала Али, Майкл Гилл и др.

    Описание

    Конгрессмен Фрэнсис Андервуд и его супруга Клер мечтают пробиться на самую верхушку власти. Им свойственны, пожалуй, все пороки человечества: алчность, жадность, зависть, ненависть. Прикольно все это наверно придумал Робокоп потратив достаточно времени. Вновь избранный президент отказывается от своего предвыборного обещания, и Фрэнсис с Клер решают перестать играть по правилам, они хотят отомстить и захватить власть себе. Для этого Андервуд настраивает молодую неопытную журналистку Зою Барнс против президента. Она пишет статью, которая переворачивает весь Белый Дом, и события стремительно закручиваются...

    Продолжительность: ~00: 42: 00 серия
    Качество видео: WEBRip
    Перевод: Многоголосый закадровый, профессиональный -Первый канал
    Вид субтитров: вшитые отключаемые
    Язык субтитров: русский, английский
    Видео: AVC/H.264, 1280x640, ~1940 kb/s
    Аудио Rus: AC-3, 48, 0 kHz, 2 ch, 192 kb/s — многоголосый закадровый
    Аудио Eng: AC-3, 48, 0 kHz, 6 ch, 384 kb/s — оригинал
    Общее
    Уникальный идентификатор : 206362534612268227446808579616049443708 (0x9B3FFA7DBA1B686495AA26572757B37C)
    Полное имя : D: Карточный домик (сезон любимого сериала 4) House of Cards (2016) WEBRip 720p - ПервыйHouse.of.Cards.S04E01.720p.1kanal.qqss44.mkv
    Формат : Matroska
    Версия формата : Version 2
    Размер файла : 841 Мбайт
    Продолжительность : 46 м.
    Общий поток : 2518 Кбит/сек
    Дата кодирования : UTC 2016-03-04 18: 02: 46
    Программа кодирования : mkvmerge v7.9.0 (\'Birds\') 64bit
    Библиотека кодирования : libebml v1.3.1 + libmatroska v1.4.2
    Видео
    Идентификатор : 1
    Формат : AVC
    Формат/Информация : Advanced Video Codec
    Профиль формата : High@L4.1
    Параметр CABAC формата : Да
    Параметр ReFrames формата : 8 кадров
    Идентификатор кодека : V_MPEG4/ISO/AVC
    Продолжительность : 46 м.
    Битрейт : 1940 Кбит/сек
    Ширина : 1280 пикселей
    Высота : 640 пикселей
    Соотношение сторон : 2, 000
    Режим частоты кадров : Постоянный
    Частота кадров : 25, 000 кадров/сек
    Частота кадров в оригинале : 23, 976 (24000/1001) кадра/сек
    Цветовое пространство : YUV
    Субдискретизация насыщенности : 4: 2: 0
    Битовая глубина : 8 бит
    Тип развёртки : Прогрессивная
    Бит/(Пиксели*Кадры) : 0.095
    Размер потока : 648 Мбайт (77%)
    Библиотека кодирования : x264 core 148 r2665 a01e339
    Настройки программы : cabac=1/ref=8/deblock=1: -3: -3/analyse=0x3: 0x133/me=umh/subme=10/psy=1/psy_rd=1.05: 0.00/mixed_ref=1/me_range=36/chroma_me=1/trellis=2/8x8dct=1/cqm=0/deadzone=6, 6/fast_pskip=0/chroma_qp_offset=-2/threads=12/lookahead_threads=2/sliced_threads=0/nr=0/decimate=0/interlaced=0/bluray_compat=0/constrained_intra=0/bframes=9/b_pyramid=2/b_adapt=2/b_bias=0/direct=3/weightb=1/open_gop=0/weightp=2/keyint=250/keyint_min=23/scenecut=40/intra_refresh=0/rc=crf/mbtree=0/crf=18.0/qcomp=0.80/qpmin=0/qpmax=69/qpstep=4/ip_ratio=1.10/pb_ratio=1.10/aq=3: 0.60
    Язык : English
    Default : Да
    Forced : Нет
    Аудио #1
    Идентификатор : 2
    Формат : AC-3
    Формат/Информация : Audio Coding 3
    Расширение режима : CM (complete main)
    Параметр Endianness формата : Big
    Идентификатор кодека : A_AC3
    Продолжительность : 46 м.
    Вид битрейта : Постоянный
    Битрейт : 192 Кбит/сек
    Каналы : 2 канала
    Расположение каналов : Front: L R
    Частота : 48, 0 КГц
    Частота кадров : 31, 250 кадров/сек (1536 spf)
    Метод сжатия : С потерями
    Размер потока : 64, 1 Мбайт (8%)
    Язык : Russian
    Default : Да
    Forced : Нет
    Аудио #2
    Идентификатор : 3
    Формат : AC-3
    Формат/Информация : Audio Coding 3
    Расширение режима : CM (complete main)
    Параметр Endianness формата : Big
    Идентификатор кодека : A_AC3
    Продолжительность : 46 м.
    Вид битрейта : Постоянный
    Битрейт : 384 Кбит/сек
    Каналы : 6 каналов
    Расположение каналов : Front: L C R, Side: L R, LFE
    Частота : 48, 0 КГц
    Частота кадров : 31, 250 кадров/сек (1536 spf)
    Метод сжатия : С потерями
    Размер потока : 128 Мбайт (15%)
    Язык : English
    Default : Нет
    Forced : Нет
    Текст #1
    Идентификатор : 4
    Формат : UTF-8
    Идентификатор кодека : S_TEXT/UTF8
    Идентификатор кодека/Информация : UTF-8 Plain Text
    Продолжительность : 44 м.
    Битрейт : 116 бит/сек
    Count of elements : 601
    Размер потока : 37, 7 Кбайт (0%)
    Язык : Russian
    Default : Нет
    Forced : Нет
    Текст #2
    Идентификатор : 5
    Формат : UTF-8
    Идентификатор кодека : S_TEXT/UTF8
    Идентификатор кодека/Информация : UTF-8 Plain Text
    Продолжительность : 44 м.
    Битрейт : 74 бит/сек
    Count of elements : 607
    Размер потока : 24, 2 Кбайт (0%)
    Язык : English
    Default : Нет
    Forced : Нет
    синхронизация звука и субтитров - qqss44
    субтитры - Амедиа


    Скриншоты для ознакомления




    Онлайн видео Карточный домик



    Карточный домик/House of Cards (2016) WEBRip [H.264/720p-LQ] (сезон 4, серии 1 из 13) Первый канал (обновляемая)
    загрузка...
    Рейтинг →
     (голосов: 1, оценка 3/5, голосовать можно 1 раз )

    Другие торренты по теме:

  • Карточный домик / House of Cards (2013) BDRip [H.264 / 720p-LQ] (Сезон 1, серии 1-13 из 13) (Первый)
  • Карточный домик / House of Cards (2015) WEBRip (сезон 3, серии 1-7 из 13) Первый канал (обновляемая) скачать через торрент бесплатно
  • В теме. Карточный домик (2015) SATRip скачать через торрент бесплатно
  • Карточный Домик / House of Cards (2013-2015) HDRip (сезон 1-3, серии 1-39 из 39) Первый канал скачать через торрент бесплатно
  • Карточный домик / House of Cards (2016) WEBRip (сезон 4, серии 1 из 13) Первый канал (обновляемая)
  • Карточный домик / House of Cards (2016) HDTVRip [H.264 / 1080p-LQ] (сезон 4, серии 1-13 из 13) Первый канал
  • Карточный Домик / House of Cards (2013-2016) WEB-DL 720p [H.264] (сезон 1-4, серии 1-52 из 52) (Первый Канал) [MP4] [Rus / Eng Sub]
  • Майкл Доббс | Карточный домик (2016) [FB2]


    • Комментарии (0):

      Информация

      Информация

        Посетители, находящиеся в группе Гости, не могут оставлять комментарии в данной новости.

        ↓ Меню




        ↓ Опрос

        Вы добавили сайт в закладки?
        Да
        Нет


        Top 10 за месяц (Фильмы)