.
Авторизация | Регистрация
Хочешь лучшие торренты? Добавь свой email!
Добавить

Торрент скачать бесплатно

» » Карточный домик / House of Cards (2016) WEBRip (сезон 4, серии 1 из 13) Первый канал (обновляемая) торрент скачать бесплатно




    Карточный домик / House of Cards (2016) WEBRip (сезон 4, серии 1 из 13) Первый канал (обновляемая) торрент скачать бесплатно

    Опубликовал: Админ | Дата: 5-03-2016, 04:01 | Просмотров: 1000

    Производство: США/Media Rights Capital, Panic Pictures (II), Trigger Street Productions
    Жанр: драма
    Режиссер: Джеймс Фоули, Джон Дэвид Коулз, Карл Франклин

    Актеры
    Кевин Спейси, Робин Райт, Кейт Мара, Кори Столл, Майкл Келли, Сакина Джэффри, Нэйтан Дарроу, Ламонт Истер, Махершала Али, Майкл Гилл и др.

    Описание

    Конгрессмен Фрэнсис Андервуд и его супруга Клер мечтают пробиться на самую верхушку власти. Им свойственны, пожалуй, все пороки человечества: алчность, жадность, зависть, ненависть. Вновь избранный президент отказывается от своего предвыборного обещания, и Фрэнсис с Клер решают перестать играть по правилам, они хотят отомстить и захватить власть себе. Для этого Андервуд настраивает молодую неопытную журналистку Зою Барнс против президента. Она пишет статью, которая переворачивает весь Белый Дом, и события стремительно закручиваются...

    Продолжительность: ~00: 47: 00 серия
    Качество видео: WEBRip
    Перевод: Многоголосый закадровый, профессиональный -Первый канал
    Вид субтитров: отдельным файлом
    Язык субтитров: русский, английский
    Видео: XviD, 704x352, ~1400 kb/s
    Аудио Rus: MPEG Layer 3, 48, 0 kHz, 2 ch, 128 kb/s — многоголосый закадровый
    Аудио Eng: MPEG Layer 3, 48, 0 kHz, 2 ch, 128 kb/s — оригинал
    Общее
    Полное имя : D: Карточный домик (сезон любимого сериала 4) House of Cards (2016) WEBRip - ПервыйHouse.of.Cards.S04E01.1kanal.qqss44.avi
    Формат : AVI
    Формат/Информация : Audio Video Interleave
    Размер файла : 556 Мбайт
    Продолжительность : 46 м.
    Общий поток : 1666 Кбит/сек
    Программа кодирования : VirtualDubMod 1.5.10.3 |www.virtualdub-fr.org|| (build 2550/release)
    Библиотека кодирования : VirtualDubMod build 2550/release
    Видео
    Идентификатор : 0
    Формат : MPEG-4 Visual
    Профиль формата : Advanced Simple@L5
    Параметр BVOP формата : 2
    Параметр QPel формата : Нет
    Параметр GMC формата : Без точки перехода
    Параметр матрицы формата : Default (MPEG)
    Идентификатор кодека : XVID
    Идентификатор кодека/Подсказка : XviD
    Продолжительность : 46 м.
    Битрейт : 1396 Кбит/сек
    Ширина : 704 пикселя
    Высота : 352 пикселя
    Соотношение сторон : 2, 000
    Частота кадров : 25, 000 кадров/сек
    Цветовое пространство : YUV
    Субдискретизация насыщенности : 4: 2: 0
    Битовая глубина : 8 бит
    Тип развёртки : Прогрессивная
    Метод сжатия : С потерями
    Бит/(Пиксели*Кадры) : 0.225
    Размер потока : 466 Мбайт (84%)
    Библиотека кодирования : XviD 73
    Аудио #1
    Идентификатор : 1
    Формат : MPEG Audio
    Версия формата : Version 1
    Профиль формата : Layer 3
    Режим : Joint stereo
    Расширение режима : MS Stereo
    Идентификатор кодека : 55
    Идентификатор кодека/Подсказка : MP3
    Продолжительность : 46 м.
    Вид битрейта : Постоянный
    Битрейт : 128 Кбит/сек
    Каналы : 2 канала
    Частота : 48, 0 КГц
    Метод сжатия : С потерями
    Размер потока : 42, 7 Мбайт (8%)
    Выравнивание : Соединение по промежуткам
    Продолжительность промежутка : 40 мс. (1, 00 видеокадр)
    Время предзагрузки промежутка : 504 мс.
    Аудио #2
    Идентификатор : 2
    Формат : MPEG Audio
    Версия формата : Version 1
    Профиль формата : Layer 3
    Режим : Joint stereo
    Расширение режима : MS Stereo
    Идентификатор кодека : 55
    Идентификатор кодека/Подсказка : MP3
    Продолжительность : 46 м.
    Вид битрейта : Постоянный
    Битрейт : 128 Кбит/сек
    Каналы : 2 канала
    Частота : 48, 0 КГц
    Метод сжатия : С потерями
    Размер потока : 42, 7 Мбайт (8%)
    Выравнивание : Соединение по промежуткам
    Продолжительность промежутка : 40 мс. Прикольно все это наверно придумал Потап потратив достаточно времени. (1, 00 видеокадр)
    Время предзагрузки промежутка : 504 мс.


    Скриншоты для ознакомления




    Онлайн видео Карточный домик



    Карточный домик/House of Cards (2016) WEBRip (сезон 4, серии 1 из 13) Первый канал (обновляемая)
    загрузка...
    Рейтинг →
     (голосов: 1, оценка 4/5, голосовать можно 1 раз )

    Другие торренты по теме:

  • Карточный домик / House of Cards (2013) BDRip [H.264 / 720p-LQ] (Сезон 1, серии 1-13 из 13) (Первый)
  • Карточный домик / House of Cards (2015) WEBRip (сезон 3, серии 1-7 из 13) Первый канал (обновляемая) скачать через торрент бесплатно
  • В теме. Карточный домик (2015) SATRip скачать через торрент бесплатно
  • Карточный Домик / House of Cards (2013-2015) HDRip (сезон 1-3, серии 1-39 из 39) Первый канал скачать через торрент бесплатно
  • Карточный домик / House of Cards (2016) WEBRip [H.264 / 720p-LQ] (сезон 4, серии 1 из 13) Первый канал (обновляемая)
  • Карточный домик / House of Cards (2016) HDTVRip [H.264 / 1080p-LQ] (сезон 4, серии 1-13 из 13) Первый канал
  • Карточный Домик / House of Cards (2013-2016) WEB-DL 720p [H.264] (сезон 1-4, серии 1-52 из 52) (Первый Канал) [MP4] [Rus / Eng Sub]
  • Майкл Доббс | Карточный домик (2016) [FB2]


    • Комментарии (0):

      Информация

      Информация

        Посетители, находящиеся в группе Гости, не могут оставлять комментарии в данной новости.

        ↓ Меню




        ↓ Опрос

        Вы добавили сайт в закладки?
        Да
        Нет


        Top 10 за месяц (Фильмы)