.
Авторизация | Регистрация
Хочешь лучшие торренты? Добавь свой email!
Добавить

Торрент скачать бесплатно

» » Ночной администратор / The Night Manager (2016) WEB-DL [H.264 / 720p-LQ] (сезон 1, серии 1-2 из 6) NewStudio (обновляемая) торрент скачать бесплатно




    Ночной администратор / The Night Manager (2016) WEB-DL [H.264 / 720p-LQ] (сезон 1, серии 1-2 из 6) NewStudio (обновляемая) торрент скачать бесплатно

    Опубликовал: Админ | Дата: 5-03-2016, 04:01 | Просмотров: 1314

    Производство: Великобритания, США/Ink Factory, The, British Broadcasting Corporation (BBC), Demarest Films
    Жанр: боевик, триллер, драма
    Режиссер: Сюзанна Бир

    Актеры
    Том Хиддлстон, Хью Лори, Элизабет Дебики, Оливия Колман, Том Холландер, Кэтерин Келли, Майкл Нардон, Алистэр Петри, Джонатан Арис, Дэвид Хэрвуд и др.

    Описание

    Сериал Ночной администратор (The Night Manager) представляет собой экранизацию романа, ставшего бестселлером во многих странах мира.
    Покинувший службу военный ищет покоя в гражданской жизни и, в поисках уединения, отправляется в Цюрих, где достаточно быстро находит работу. Самое интересное в это истории, что об этом Европарламент ничего не знал. Теперь он — ночной администратор в одном из самых знаменитых отелей мира. Но совсем скоро герой начинает понимать, что внешне благопристойная гостиница оказывается настоящей штаб-квартирой преступного синдиката, снабжающего оружием всю Европу. И теперь только от него зависит, будет шайка контрабандистов и дальше продолжать свои махинации или получит по заслугам. Какой же выбор сделает отставник Пайн?

    Дата мировой премьеры: 21 февраля 2016
    Дата премьеры в РФ: 22 февраля 2016
    Продолжительность: ~00: 58: 00 серия
    Качество видео: WEB-DL
    Перевод: Многоголосый закадровый, профессиональный -NewStudio
    Автор перевода: Алексей Матвеев
    Реклама: присутствуют голосовые вставки рекламы
    Видео: AVC/H.264, 1280x718@960x718 (16: 9), ~3899 kb/s
    Аудио Rus: AC3, 48, 0 kHz, 6 ch, 384 kb/s - многоголосый закадровый
    Аудио Eng: AC3, 48, 0 kHz, 6 ch, 384 kb/s - оригинал
    Код:
    General
    Unique ID : 203485250432737630220803100882242480113 (0x9915D56DB01A27189641289D8D8DA7F1)
    Complete name : The Night Manager [S01] [NewStudio]The.Night.Manager.S01E01.WEBDL.720p.NewStudio.TV.mkv
    Format : Matroska
    Format version : Version 4/Version 2
    File size : 1.88 GiB
    Duration : 57mn 32s
    Overall bit rate : 4 669 Kbps
    Encoded date : UTC 2016-02-23 12:38:38
    Writing application : mkvmerge v8.3.0 (\'Over the Horizon\') 64bit
    Writing library : libebml v1.3.1 + libmatroska v1.4.2
    Video
    ID : 1
    Format : AVC
    Format/Info : Advanced Video Codec
    Format profile :Main@L3.1
    Format settings, CABAC : No
    Format settings, ReFrames : 2 frames
    Codec ID : V_MPEG4/ISO/AVC
    Duration : 57mn 32s
    Bit rate : 3 899 Kbps
    Width : 960 pixels
    Height : 718 pixels
    Display aspect ratio : 16:9
    Frame rate mode : Constant
    Frame rate : 25.000 fps
    Color space : YUV
    Chroma subsampling : 4:2:0
    Bit depth : 8 bits
    Scan type : Progressive
    Bits/(Pixel*Frame) : 0.226
    Stream size : 1.57 GiB (84%)
    Language : English
    Default : Yes
    Forced : No
    Color range : Limited
    Color primaries : BT.709
    Transfer characteristics : BT.709
    Matrix coefficients : BT.709
    Audio #1
    ID : 2
    Format : AC-3
    Format/Info : Audio Coding 3
    Mode extension : CM (complete main)
    Format settings, Endianness : Big
    Codec ID : A_AC3
    Duration : 57mn 32s
    Bit rate mode : Constant
    Bit rate : 384 Kbps
    Channel(s) : 6 channels
    Channel positions : Front: L C R, Side: L R, LFE
    Sampling rate : 48.0 KHz
    Frame rate : 31.250 fps (1536 spf)
    Compression mode : Lossy
    Stream size : 158 MiB (8%)
    Language : Russian
    Default : Yes
    Forced : No
    Audio #2
    ID : 3
    Format : AC-3
    Format/Info : Audio Coding 3
    Mode extension : CM (complete main)
    Format settings, Endianness : Big
    Codec ID : A_AC3
    Duration : 57mn 32s
    Bit rate mode : Constant
    Bit rate : 384 Kbps
    Channel(s) : 6 channels
    Channel positions : Front: L C R, Side: L R, LFE
    Sampling rate : 48.0 KHz
    Frame rate : 31.250 fps (1536 spf)
    Compression mode : Lossy
    Stream size : 158 MiB (8%)
    Language : English
    Default : No
    Forced : No


    Скриншоты для ознакомления




    Онлайн видео Ночной администратор



    Ночной администратор/The Night Manager (2016) WEB-DL [H.264/720p-LQ] (сезон 1, серии 1-2 из 6) NewStudio (обновляемая)
    загрузка...
    Рейтинг →
     (голосов: 1, оценка 3/5, голосовать можно 1 раз )

    Другие торренты по теме:

  • Ночной администратор / The Night Manager (2016) WEB-DLRip (сезон 1, серии 1 из 6) NewStudio (обновляемая)
  • Ночной администратор / The Night Manager (2016) WEB-DL [H.264 / 1080p-LQ] (сезон 1, серии 1 из 6) AMC (обновляемая)
  • Ночной администратор / The Night Manager (2016) WEB-DLRip (сезон 1, серии 1 из 6) AMC (обновляемая)
  • Ночной администратор / The Night Manager (2016) WEB-DL [H.264 / 1080p-LQ] (сезон 1, серии 1 из 6) LostFilm (обновляемая)
  • Ночной администратор / The Night Manager (2016) WEB-DLRip (сезон 1, серии 1 из 6) LostFilm (обновляемая)
  • Ночной администратор / The Night Manager (2016) WEB-DL [H.264 / 720p-LQ] (сезон 1, серии 1-6 из 6) Jaskier
  • Ночной администратор / The Night Manager (2016) WEB-DLRip [H.264] (сезон 1, серии 1-5 из 6) LostFilm [MP4|1280x720]
  • Джон Ле Карре | Ночной администратор (2016) [MP3]


    • Комментарии (0):

      Информация

      Информация

        Посетители, находящиеся в группе Гости, не могут оставлять комментарии в данной новости.

        ↓ Меню




        ↓ Опрос

        Вы добавили сайт в закладки?
        Да
        Нет


        Top 10 за месяц (Фильмы)