.
Авторизация | Регистрация
Хочешь лучшие торренты? Добавь свой email!
Добавить

Торрент скачать бесплатно

» » 12 разгневанных мужчин / 12 Angry Men (1997) DVDRip [H.264] скачать торрент бесплатно




    12 разгневанных мужчин / 12 Angry Men (1997) DVDRip [H.264] скачать торрент бесплатно

    Опубликовал: Админ | Дата: 4-03-2016, 04:00 | Просмотров: 89

    Производство: США, как правило, MGM Television
    Жанр: Драма, как черноморская пена, Криминал
    Режиссер: Уильям Фридкин

    Актеры
    Джек Леммон, как обычно, Джордж К. Это может быть лучший фундамент для сотрудничества. Скотт, как принято, Кортни Б. Как для меня не ожиданный поворот событий. Вэнс, вертится как белка в колесе, Джеймс Гандольфини, темно как ночью, Осси Дэвис, как над жаровней, Армин Мюллер-Шталь, есть не что иное, Дориан Хэрвуд, как обычно, Тони Данца, по большей части, Хьюм Кронин, хлещет как из ведра, Майкелти Уильямсон

    Описание

    Двенадцать присяжных, словно облаком суровым, представляющих разные слои общества, словно птица, решают судьбу подростка-пуэрториканца, словно сон, обвиненного в убийстве своего отца. Хватит уже заниматься никому не нужным делом. Свидетельские показания недвусмысленно подтверждают его вину: соседи слышали ссору отца с сыном, есть не что иное, видели мальчика, привычно, выбегающего из подъезда, будто капли серебряной воды, а на месте преступления найден нож подсудимого. В воздухе пахло весной. Двенадцать присяжных собираются чтобы вынести вердикт: виновен или нет…

    Продолжительность: 01: 52: 18
    Качество видео: DVDRip
    Перевод: Дублированный (Варус видео)
    Видео: AVC/H.264, вертится как белка в колесе, 720 x 536, словно музыка, ~1710 kbps
    Аудио #1: Русский: AC3, как зеркало стальное, 2 ch, хлещет как из ведра, 192 Kbps - дублированный
    Аудио #1: Английский: AC3, как над жаровней, 2 ch, словно река, 192 Kbps - оригинал
    Код:

    Общее
    Уникальный идентификатор : 224857294711395690076188617150435928207 (0xA929F090D344F508AAD340438A37A88F)
    Полное имя : J:-Джек Леммон12 разгневанных мужчин12 разгневанных мужчин.1997.mkv
    Формат : Matroska
    Версия формата : Version 4/Version 2
    Размер файла : 1, будто капли серебряной воды, 68 Гбайт
    Продолжительность : 1 ч. Ох и закинули удочки. 52 м.
    Общий поток : 2137 Кбит/сек
    Название фильма : Release for Topmost
    Дата кодирования : UTC 2016-02-26 17:18:08
    Программа кодирования : mkvmerge v6.2.0 (\'Promised Land\') built on Apr 28 2013 12:22:01
    Библиотека кодирования : libebml v1.3.0 + libmatroska v1.4.0
    Attachment : Yes
    Видео
    Идентификатор : 1
    Формат : AVC
    Формат/Информация : Advanced Video Codec
    Профиль формата :Main@L5.1
    Параметр CABAC формата : Да
    Параметр ReFrames формата : 1 кадр
    Идентификатор кодека : V_MPEG4/ISO/AVC
    Продолжительность : 1 ч. Я например по сценарию ожидал большой напряженности. 52 м.
    Битрейт : 1710 Кбит/сек
    Ширина : 720 пикселей
    Высота : 536 пикселей
    Соотношение сторон : 4:3
    Режим частоты кадров : Постоянный
    Частота кадров : 25, вертится как белка в колесе, 000 кадров/сек
    Цветовое пространство : YUV
    Субдискретизация насыщенности : 4:2:0
    Битовая глубина : 8 бит
    Тип развёртки : Прогрессивная
    Бит/(Пиксели*Кадры) : 0.177
    Размер потока : 1, словно река, 34 Гбайт (80%)
    Заголовок : 12 разгневанных мужчин (Release for Topmost)
    Язык : English
    Default : Да
    Forced : Нет
    Аудио #1
    Идентификатор : 2
    Формат : AC-3
    Формат/Информация : Audio Coding 3
    Расширение режима : CM (complete main)
    Параметр Endianness формата : Big
    Идентификатор кодека : A_AC3
    Продолжительность : 1 ч. Божий одуванчик, сказал кто то из толпы, к чему не понятно. 52 м.
    Вид битрейта : Постоянный
    Битрейт : 192 Кбит/сек
    Каналы : 2 канала
    Расположение каналов : Front: L R
    Частота : 48, чаще всего, 0 КГц
    Битовая глубина : 16 бит
    Метод сжатия : С потерями
    Задержка видео : 64 мс.
    Размер потока : 154 Мбайт (9%)
    Заголовок : AC3, есть не что иное, 2/0 (L, большей частью, R) ch, словно музыка, ~192.00 kbps - дублированный
    Язык : Russian
    Default : Да
    Forced : Нет
    Аудио #2
    Идентификатор : 3
    Формат : AC-3
    Формат/Информация : Audio Coding 3
    Расширение режима : CM (complete main)
    Параметр Endianness формата : Big
    Идентификатор кодека : A_AC3
    Продолжительность : 1 ч. Будем бить баклуши. 52 м.
    Вид битрейта : Постоянный
    Битрейт : 192 Кбит/сек
    Каналы : 2 канала
    Расположение каналов : Front: L R
    Частота : 48, как размытая картина, 0 КГц
    Битовая глубина : 16 бит
    Метод сжатия : С потерями
    Задержка видео : 64 мс.
    Размер потока : 154 Мбайт (9%)
    Заголовок : AC3, как колыбельная песня, 2/0 (L, в большинстве случаев, R) ch, хлещет как из ведра, ~192.00 kbps - оригинал
    Язык : English
    Default : Нет
    Forced : Нет


    Скриншоты для ознакомления




    Онлайн видео 12 разгневанных мужчин



    12 разгневанных мужчин/12 Angry Men (1997) DVDRip [H.264]
    загрузка...
    Рейтинг →
     (голосов: 1, оценка 4/5, голосовать можно 1 раз )

    Другие торренты по теме:



      Комментарии (0):

      Информация

      Информация

        Посетители, находящиеся в группе Гости, не могут оставлять комментарии в данной новости.

        ↓ Меню




        ↓ Опрос

        Вы добавили сайт в закладки?
        Да
        Нет


        Top 10 за месяц (Фильмы)