.
Авторизация | Регистрация
Хочешь лучшие торренты? Добавь свой email!
Добавить

Торрент скачать бесплатно

» » На всю оставшуюся жизнь (1975) SATRip торрент скачать бесплатно




    На всю оставшуюся жизнь (1975) SATRip торрент скачать бесплатно

    Опубликовал: Админ | Дата: 3-03-2016, 04:03 | Просмотров: 119

    Производство: СССР, Ленинградское телевидение
    Жанр: Военный, Драма
    Режиссер: Пётр Фоменко

    Актеры
    Алексей Эйбоженко, Эрнст Романов, Людмила Аринина, Таисия Калинченко, Светлана Карпинская, Майя Булгакова, Михаил Данилов, Григорий Гай, Валентин Гафт, Кира Головко, Глеб Стриженов, Маргарита Терехова, Михаил Жигалов, Георгий Штиль, Сергей Заморев, Владимир Пучков, Пантелеймон Крымов, Юрий Лазарев, Николай Пеньков, Евгений Соляков, Нина Ургант, Татьяна Чернецова, Татьяна Шестакова, Татьяна Щуко, Евгений Агафонов

    Описание

    По повести Веры Пановой Спутники. Четыре года по дорогам войны курсирует поезд милосердия, эвакуируя с фронта раненых. Бомбежки, кровь, смерть, короткие минуты отдыха сближают людей, спасающих чужие жизни. Прикольно все это наверно придумал Шварценеггер потратив достаточно времени. Все они становятся одной большой семьей.

    Продолжительность: 01: 11: 46 + 01: 10: 05 + 01: 04: 49 + 01: 02: 35
    Качество видео: SATRip
    Видео: Xvid, 704x528, ~2208 kbps
    Аудио: AC3, 2 ch, 192 kbps
    Код:

    General
    Complete name : На всю оставшуюся жизньna_vsu_ostavshuusya_zhizn_4.3_[torrents.ru]_by_bm11_part1.avi
    Format : AVI
    Format/Info : Audio Video Interleave
    File size : 1.09 GiB
    Duration : 1h 11mn
    Overall bit rate : 2 177 Kbps
    Director : bm11
    Writing application : VirtualDubMod 1.5.10.3 |www.virtualdub-fr.org|| (build 2550/release)
    Video
    ID : 0
    Format : MPEG-4 Visual
    Format profile : Advanced Simple@L5
    Format settings, BVOP : 1
    Format settings, QPel : No
    Format settings, GMC : No warppoints
    Format settings, Matrix : Custom
    Codec ID : XVID
    Codec ID/Hint : XviD
    Duration : 1h 11mn
    Bit rate : 1 975 Kbps
    Width : 704 pixels
    Height : 528 pixels
    Display aspect ratio : 4:3
    Frame rate : 25.000 fps
    Color space : YUV
    Chroma subsampling : 4:2:0
    Bit depth : 8 bits
    Scan type : Progressive
    Compression mode : Lossy
    Bits/(Pixel*Frame) : 0.213
    Stream size : 1 014 MiB (91%)
    Writing library : XviD 73
    Audio
    ID : 1
    Format : AC-3
    Format/Info : Audio Coding 3
    Mode extension : CM (complete main)
    Format settings, Endianness : Big
    Codec ID : 2000
    Duration : 1h 11mn
    Bit rate mode : Constant
    Bit rate : 192 Kbps
    Channel(s) : 2 channels
    Channel positions : Front: L R
    Sampling rate : 48.0 KHz
    Frame rate : 31.250 fps (1536 spf)
    Compression mode : Lossy
    Stream size : 98.6 MiB (9%)
    Alignment : Split accross interleaves
    Interleave, duration : 40 ms (1.00 video frame)
    Interleave, preload duratio : 500 ms


    Скриншоты для ознакомления




    На всю оставшуюся жизнь (1975) SATRip
    загрузка...
    Рейтинг →
     (голосов: 1, оценка 4/5, голосовать можно 1 раз )

    Другие торренты по теме:



      Комментарии (0):

      Информация

      Информация

        Посетители, находящиеся в группе Гости, не могут оставлять комментарии в данной новости.

        ↓ Меню




        ↓ Опрос

        Вы добавили сайт в закладки?
        Да
        Нет


        Top 10 за месяц (Фильмы)