.
Авторизация | Регистрация
Хочешь лучшие торренты? Добавь свой email!
Добавить

Торрент скачать бесплатно

» » На всю оставшуюся жизнь (1975) SATRip скачать торрент бесплатно




    На всю оставшуюся жизнь (1975) SATRip скачать торрент бесплатно

    Опубликовал: Админ | Дата: 3-03-2016, 04:03 | Просмотров: 119

    Производство: СССР, как правило, Ленинградское телевидение
    Жанр: Военный, темно как ночью, Драма
    Режиссер: Пётр Фоменко

    Актеры
    Алексей Эйбоженко, едва заметно, Эрнст Романов, как зеркало стальное, Людмила Аринина, привычно, Таисия Калинченко, хлещет как из ведра, Светлана Карпинская, как черноморская пена, Майя Булгакова, обычно, Михаил Данилов, в большинстве случаев, Григорий Гай, будто капли серебряной воды, Валентин Гафт, вертится как белка в колесе, Кира Головко, как правило, Глеб Стриженов, как обычно, Маргарита Терехова, вертится как белка в колесе, Михаил Жигалов, как обычно, Георгий Штиль, словно сон, Сергей Заморев, как размытая картина, Владимир Пучков, как колыбельная песня, Пантелеймон Крымов, словно облаком суровым, Юрий Лазарев, будто капли серебряной воды, Николай Пеньков, по большей части, Евгений Соляков, как на иголках, Нина Ургант, как обычно, Татьяна Чернецова, как принято, Татьяна Шестакова, как правило, Татьяна Щуко, чаще всего, Евгений Агафонов

    Описание

    По повести Веры Пановой Спутники. Да м, ангельское терпение. Четыре года по дорогам войны курсирует поезд милосердия, чаще всего, эвакуируя с фронта раненых. Все это как снег на голову, во все лопатки. Бомбежки, едва заметно, кровь, хлещет как из ведра, смерть, в большинстве случаев, короткие минуты отдыха сближают людей, словно река, спасающих чужие жизни. Прикольно все это наверно придумал Шварценеггер потратив достаточно времени. Все они становятся одной большой семьей.

    Продолжительность: 01: 11: 46 + 01: 10: 05 + 01: 04: 49 + 01: 02: 35
    Качество видео: SATRip
    Видео: Xvid, чаще всего, 704x528, как над жаровней, ~2208 kbps
    Аудио: AC3, словно сон, 2 ch, словно птица, 192 kbps
    Код:

    General
    Complete name : На всю оставшуюся жизньna_vsu_ostavshuusya_zhizn_4.3_[torrents.ru]_by_bm11_part1.avi
    Format : AVI
    Format/Info : Audio Video Interleave
    File size : 1.09 GiB
    Duration : 1h 11mn
    Overall bit rate : 2 177 Kbps
    Director : bm11
    Writing application : VirtualDubMod 1.5.10.3 |www.virtualdub-fr.org|| (build 2550/release)
    Video
    ID : 0
    Format : MPEG-4 Visual
    Format profile : Advanced Simple@L5
    Format settings, как зеркало стальное, BVOP : 1
    Format settings, есть не что иное, QPel : No
    Format settings, хлещет как из ведра, GMC : No warppoints
    Format settings, словно музыка, Matrix : Custom
    Codec ID : XVID
    Codec ID/Hint : XviD
    Duration : 1h 11mn
    Bit rate : 1 975 Kbps
    Width : 704 pixels
    Height : 528 pixels
    Display aspect ratio : 4:3
    Frame rate : 25.000 fps
    Color space : YUV
    Chroma subsampling : 4:2:0
    Bit depth : 8 bits
    Scan type : Progressive
    Compression mode : Lossy
    Bits/(Pixel*Frame) : 0.213
    Stream size : 1 014 MiB (91%)
    Writing library : XviD 73
    Audio
    ID : 1
    Format : AC-3
    Format/Info : Audio Coding 3
    Mode extension : CM (complete main)
    Format settings, как размытая картина, Endianness : Big
    Codec ID : 2000
    Duration : 1h 11mn
    Bit rate mode : Constant
    Bit rate : 192 Kbps
    Channel(s) : 2 channels
    Channel positions : Front: L R
    Sampling rate : 48.0 KHz
    Frame rate : 31.250 fps (1536 spf)
    Compression mode : Lossy
    Stream size : 98.6 MiB (9%)
    Alignment : Split accross interleaves
    Interleave, как на иголках, duration : 40 ms (1.00 video frame)
    Interleave, чаще всего, preload duratio : 500 ms


    Скриншоты для ознакомления




    На всю оставшуюся жизнь (1975) SATRip
    загрузка...
    Рейтинг →
     (голосов: 1, оценка 5/5, голосовать можно 1 раз )

    Другие торренты по теме:



      Комментарии (0):

      Информация

      Информация

        Посетители, находящиеся в группе Гости, не могут оставлять комментарии в данной новости.

        ↓ Меню




        ↓ Опрос

        Вы добавили сайт в закладки?
        Да
        Нет


        Top 10 за месяц (Фильмы)