.
Авторизация | Регистрация
Хочешь лучшие торренты? Добавь свой email!
Добавить

Торрент скачать бесплатно

» » Тальянка (2014) WEB-DLRip [H.264 / 1080p-LQ] (серии 1-4 из 8) (обновляемая) торрент скачать бесплатно




    Тальянка (2014) WEB-DLRip [H.264 / 1080p-LQ] (серии 1-4 из 8) (обновляемая) торрент скачать бесплатно

    Опубликовал: Админ | Дата: 3-03-2016, 04:03 | Просмотров: 65

    Производство: Россия/Всемирные Русские Студии
    Жанр: драма, мелодрама
    Режиссер: Евгений Звездаков

    Актеры
    Андрей Мерзликин, Йоанна Моро, Екатерина Гусева, Даниил Спиваковский, Игорь Скляр, Александр Коршунов, Николай Иванов, Савва Гусев, Павел Деревянко, Виталий Коваленко, Владимир Маслаков, Юрий Ицков, Сергей Галич, Андрей Зибров, Пётр Журавлёв, Владислав Резник, Владимир Щербаков, Вета Кондратьева, Роман Притула, Екатерина Тарасова, Евгений Татаров, Даниил Кокин, Анатолий Кондюбов, Любовь Макеева и др.

    Описание

    В партизанском отряде в Италии полюбили друг друга русский летчик Степан и танцовщица Джульетта. Жена и сын Степана погибли в немецкой оккупации, и Степан открылся новому чувству. После войны с дочерью Софи они приезжают на родину Степана, в родную деревню. И узнают, что семья Степана выжила, и теперь у него две жены, и двое детей. Джульетта не хочет строить свое счастье на несчастье других, и собирается вернуться домой. Самое интересное в это истории, что об этом Ван дамм ничего не знал. Но поскольку Софи теперь гражданка СССР, Джульетта может уехать только одна...

    Продолжительность: ~00: 50: 00 серия
    Качество видео: WEB-DLRip
    Видео: AVC/H.264, 1920x1080 (16: 9), ~4000 Kbps
    Аудио: AC3, 2 ch, 192 Kbps, CBR
    Код:
    Общее
    Уникальный идентификатор : 194315148396594231295105759818519050054 (0x922FBC7DCBF34A27B5970B01D6F27746)
    Полное имя : F:DOWNLOADSТальянка (2014) WEB-DLRip 1080Тальянка - 01 серия.mkv
    Формат : Matroska
    Версия формата : Version 2
    Размер файла : 1, 49 Гбайт
    Продолжительность : 50 м.
    Режим общего битрейта : Переменный
    Общий поток : 4197 Кбит/сек
    Дата кодирования : UTC 2016-03-02 13:21:18
    Программа кодирования : mkvmerge v7.8.0 (\'River Man\') 32bit built on Apr 3 2015 12:11:22
    Библиотека кодирования : libebml v1.3.1 + libmatroska v1.4.2
    Видео
    Идентификатор : 1
    Формат : AVC
    Формат/Информация : Advanced Video Codec
    Профиль формата :High@L4.1
    Параметр CABAC формата : Да
    Параметр ReFrames формата : 3 кадра
    Идентификатор кодека : V_MPEG4/ISO/AVC
    Продолжительность : 50 м.
    Вид битрейта : Переменный
    Битрейт : 4000 Кбит/сек
    Максимальный битрейт : 40, 0 Мбит/сек
    Ширина : 1920 пикселей
    Высота : 1080 пикселей
    Соотношение сторон : 16:9
    Режим частоты кадров : Постоянный
    Частота кадров : 25, 000 кадров/сек
    Цветовое пространство : YUV
    Субдискретизация насыщенности : 4:2:0
    Битовая глубина : 8 бит
    Тип развёртки : Прогрессивная
    Бит/(Пиксели*Кадры) : 0.077
    Размер потока : 1, 40 Гбайт (93%)
    Библиотека кодирования : x264 core 142 r2389 956c8d8
    Настройки программы : cabac=1/ref=3/deblock=1:0:0/analyse=0x3:0x133/me=umh/subme=7/psy=1/psy_rd=1.00:0.00/mixed_ref=1/me_range=32/chroma_me=1/trellis=2/8x8dct=1/cqm=0/deadzone=21, 11/fast_pskip=1/chroma_qp_offset=-2/threads=12/lookahead_threads=2/sliced_threads=0/nr=0/decimate=1/interlaced=0/bluray_compat=0/constrained_intra=0/bframes=0/weightp=0/keyint=75/keyint_min=26/scenecut=40/intra_refresh=0/rc_lookahead=50/rc=2pass/mbtree=0/bitrate=4000/ratetol=1.0/qcomp=0.20/qpmin=10/qpmax=51/qpstep=4/cplxblur=20.0/qblur=0.5/vbv_maxrate=5000/vbv_bufsize=5000/nal_hrd=none/filler=0/ip_ratio=1.40/aq=1:1.0
    Default : Да
    Forced : Нет
    Цветовой диапазон : Limited
    Основные цвета : BT.709
    Характеристики трансфера : BT.709
    Коэффициенты матрицы : BT.709
    Аудио
    Идентификатор : 2
    Формат : AC-3
    Формат/Информация : Audio Coding 3
    Расширение режима : CM (complete main)
    Параметр Endianness формата : Big
    Идентификатор кодека : A_AC3
    Продолжительность : 50 м.
    Вид битрейта : Постоянный
    Битрейт : 192 Кбит/сек
    Каналы : 2 канала
    Расположение каналов : Front: L R
    Частота : 44, 1 КГц
    Метод сжатия : С потерями
    Размер потока : 70, 0 Мбайт (5%)
    Default : Да
    Forced : Нет


    Скриншоты для ознакомления




    Онлайн видео Тальянка (2014) WEB-DLRip [H.264



    Тальянка (2014) WEB-DLRip [H.264/1080p-LQ] (серии 1-4 из 8) (обновляемая)
    загрузка...
    Рейтинг →
     (голосов: 1, оценка 5/5, голосовать можно 1 раз )

    Другие торренты по теме:

  • Тальянка (2014) WEB-DLRip [H.264 / 720p-LQ] (серии 1-4 из 8) (обновляемая)


    • Комментарии (0):

      Информация

      Информация

        Посетители, находящиеся в группе Гости, не могут оставлять комментарии в данной новости.

        ↓ Меню




        ↓ Опрос

        Вы добавили сайт в закладки?
        Да
        Нет


        Top 10 за месяц (Фильмы)