.
Авторизация | Регистрация
Хочешь лучшие торренты? Добавь свой email!
Добавить

Торрент скачать бесплатно

» » Улица милосердия / Mercy Street (2016) WEBRip [H.264 / 720p-LQ] (сезон 1, серии 1-5 из 6) Baibako (обновляемая) торрент скачать бесплатно




    Улица милосердия / Mercy Street (2016) WEBRip [H.264 / 720p-LQ] (сезон 1, серии 1-5 из 6) Baibako (обновляемая) торрент скачать бесплатно

    Опубликовал: Админ | Дата: 3-03-2016, 04:03 | Просмотров: 129

    Производство: США/Scott Free Productions
    Жанр: драма, история
    Режиссер: Роксанн Доусон, Джереми Уэбб

    Актеры
    Shalita Grant, Мэри Элизабет Уинстэд, Джош Рэднор, МакКинли Белчер III, Сюзэнн Бертиш, Jay Bush, Норберт Лео Батц, Л. Взрывоопасный вопрос, сказал кто то из толпы, к чему не понятно. Скотт Колдуэлл, Гэри Коул, Питер Герети

    Описание

    Сериал о жизни двух медсестер, находящихся по разные стороны баррикад гражданской войны 1861-1865 гг. Мария Финни выступает за Новую Англию, а Эмма Грин является сторонницей Конфедерации. Их пути пересекаются в роскошном отеле The Green, находящемся в городе Александрия штата Виргиния. Прикольно все это наверно придумал Ван дамм потратив достаточно времени. На время войны его превратили в больницу Союза армии. Туда попадает раненый офицер, судьба которого очень волнует обеих девушек.

    Дата мировой премьеры: 17.01.2016
    Продолжительность: ~00: 53: 00 серия
    Качество видео: WEBRip H.264/720p
    Перевод: Многоголосый закадровый, профессиональный -Baibako
    Автор перевода: Фиона Кудреватых
    Озвучка: Анастасия Флигина, Anna_Smile, Дмитрий Глебов и Сергей Корчак
    Реклама: присутствуют видео, аудио вставки рекламы.
    Видео: AVC/H.264, 1280x720 (16: 9), ~4393 Kbps
    Аудио #1 Rus: DTS, 6 ch, 1509 Kbps, CBR — многоголосый закадровый
    Аудио #2 Eng: DTS, 6 ch, 1509 Kbps, CBR — оригинал
    Код:

    Общее
    Полное имя : E:CINEMAСЕРИАЛЫUlitca miloserdiia S1 Mercy Street (2016) HDTV - BaibakoUlitca miloserdiia S1 Mercy Street (2016) 720p HDTV - BaibakoMercy.Street.s01e01.HD720p.BluRay.Rus.Eng.BaibaKo.tv.mkv
    Формат : Matroska
    Версия формата : Version 4/Version 2
    Размер файла : 2, 75 Гбайт
    Продолжительность : 53 м.
    Общий поток : 7414 Кбит/сек
    Дата кодирования : UTC 2016-02-07 20:50:42
    Программа кодирования : mkvmerge v8.8.0 (\'Wind at my back\') 64bit
    Библиотека кодирования : libebml v1.3.3 + libmatroska v1.4.4
    Видео
    Идентификатор : 1
    Формат : AVC
    Формат/Информация : Advanced Video Codec
    Профиль формата :High@L4.1
    Параметр CABAC формата : Да
    Параметр ReFrames формата : 5 кадров
    Идентификатор кодека : V_MPEG4/ISO/AVC
    Продолжительность : 53 м.
    Битрейт : 4393 Кбит/сек
    Ширина : 1280 пикселей
    Высота : 720 пикселей
    Соотношение сторон : 16:9
    Режим частоты кадров : Постоянный
    Частота кадров : 23, 976 (24000/1001) кадра/сек
    Цветовое пространство : YUV
    Субдискретизация насыщенности : 4:2:0
    Битовая глубина : 8 бит
    Тип развёртки : Прогрессивная
    Бит/(Пиксели*Кадры) : 0.199
    Размер потока : 1, 63 Гбайт (59%)
    Библиотека кодирования : x264 core 148 r2665 a01e339
    Default : Нет
    Forced : Нет
    Аудио #1
    Идентификатор : 2
    Формат : DTS
    Формат/Информация : Digital Theater Systems
    Режим : 16
    Параметр Endianness формата : Big
    Идентификатор кодека : A_DTS
    Продолжительность : 53 м.
    Вид битрейта : Постоянный
    Битрейт : 1509 Кбит/сек
    Каналы : 6 каналов
    Расположение каналов : Front: L C R, Side: L R, LFE
    Частота : 48, 0 КГц
    Частота кадров : 93, 750 кадра/сек (512 spf)
    Битовая глубина : 16 бит
    Метод сжатия : С потерями
    Размер потока : 574 Мбайт (20%)
    Язык : Russian
    Default : Да
    Forced : Нет
    Аудио #2
    Идентификатор : 3
    Формат : DTS
    Формат/Информация : Digital Theater Systems
    Режим : 16
    Параметр Endianness формата : Big
    Идентификатор кодека : A_DTS
    Продолжительность : 53 м.
    Вид битрейта : Постоянный
    Битрейт : 1509 Кбит/сек
    Каналы : 6 каналов
    Расположение каналов : Front: L C R, Side: L R, LFE
    Частота : 48, 0 КГц
    Частота кадров : 93, 750 кадра/сек (512 spf)
    Битовая глубина : 16 бит
    Метод сжатия : С потерями
    Размер потока : 574 Мбайт (20%)
    Язык : English
    Default : Нет
    Forced : Нет


    Скриншоты для ознакомления




    Онлайн видео Улица милосердия



    Улица милосердия/Mercy Street (2016) WEBRip [H.264/720p-LQ] (сезон 1, серии 1-5 из 6) Baibako (обновляемая)
    загрузка...
    Рейтинг →
     (голосов: 1, оценка 4/5, голосовать можно 1 раз )

    Другие торренты по теме:

  • Улица милосердия / Mercy Street (2016) WEBRip [H.264 / 1080p] (сезон 1, серии 1-4 из 6) Baibako (обновляемая)


    • Комментарии (0):

      Информация

      Информация

        Посетители, находящиеся в группе Гости, не могут оставлять комментарии в данной новости.

        ↓ Меню




        ↓ Опрос

        Вы добавили сайт в закладки?
        Да
        Нет


        Top 10 за месяц (Фильмы)