.
Авторизация | Регистрация
Хочешь лучшие торренты? Добавь свой email!
Добавить

Торрент скачать бесплатно

» » Кухня (2016) SATRip [H.264] (сезон 6, серии 1-3 из 20) (обновляемая) торрент скачать бесплатно




    Кухня (2016) SATRip [H.264] (сезон 6, серии 1-3 из 20) (обновляемая) торрент скачать бесплатно

    Опубликовал: Админ | Дата: 2-03-2016, 04:00 | Просмотров: 79

    Производство: Россия/YBW Group по заказу СТС
    Жанр: комедия
    Режиссер: Антон Федотов

    Актеры
    Дмитрий Назаров, Марк Богатырев, Елена Подкаминская, Дмитрий Нагиев, Марина Могилевская, Виктор Хориняк, Сергей Лавыгин, Михаил Тарабукин, Сергей Епишев, Никита Тарасов, Екатерина Кузнецова, Ольга Кузьмина и др.

    Описание

    Зрители, которые внимательно смотрели последнюю серию, вероятно уловили тонкую подсказку о сюжетной линии 6 сезон любимого сериалаа сериала кухни. Финальная сцена закончилась добрым концом запутанной истории о взаимоотношениях Виктории и Макса. Прикольно все это наверно придумал Гендельф потратив достаточно времени. И теперь наступает время для новой истории любви, в которой основными персонажами с высокой долей вероятности станут Катя и Никита.Кроме этого, так и не раскрытой осталась интрига личной жизни шефа Виктора Баринова и его прекрасной, терпеливой и очень мудрой Елены Павловны.

    Продолжительность: ~00: 47: 00 серия
    Качество видео: SATRip
    Видео: AVC/H.264, 720х400 (16: 9), ~1600 Кбит/сек
    Аудио: AC3, 2 канала, 192 Кбит/сек, CBR
    Код:

    Общее
    Уникальный идентификатор : 174851520072637013517004362298443748914 (0x838B2D8675D7E61D8C014AB4F938D632)
    Полное имя : E:КУХНЯКУХНЯ_01 серия rip by_Aleksan55.mkv
    Формат : Matroska
    Версия формата : Version 2
    Размер файла : 344 Мбайт
    Продолжительность : 26 м.
    Общий поток : 1794 Кбит/сек
    Дата кодирования : UTC 2016-02-29 13:26:01
    Программа кодирования : mkvmerge v7.8.0 (\'River Man\') 32bit built on Apr 3 2015 12:11:22
    Библиотека кодирования : libebml v1.3.1 + libmatroska v1.4.2
    Видео
    Идентификатор : 1
    Формат : AVC
    Формат/Информация : Advanced Video Codec
    Профиль формата :High@L4.1
    Параметр CABAC формата : Да
    Параметр ReFrames формата : 12 кадров
    Идентификатор кодека : V_MPEG4/ISO/AVC
    Продолжительность : 26 м.
    Битрейт : 1600 Кбит/сек
    Ширина : 720 пикселей
    Высота : 400 пикселей
    Соотношение сторон : 16:9
    Режим частоты кадров : Постоянный
    Частота кадров : 25, 000 кадров/сек
    Цветовое пространство : YUV
    Субдискретизация насыщенности : 4:2:0
    Битовая глубина : 8 бит
    Тип развёртки : Прогрессивная
    Бит/(Пиксели*Кадры) : 0.222
    Размер потока : 300 Мбайт (87%)
    Библиотека кодирования : x264 core 146 r2538 121396c
    Настройки программы : cabac=1/ref=12/deblock=1:-2:-2/analyse=0x3:0x113/me=umh/subme=9/psy=1/psy_rd=1.00:0.15/mixed_ref=1/me_range=32/chroma_me=1/trellis=2/8x8dct=1/cqm=0/deadzone=21, 11/fast_pskip=1/chroma_qp_offset=-3/threads=6/lookahead_threads=4/sliced_threads=0/nr=0/decimate=1/interlaced=0/bluray_compat=0/constrained_intra=0/bframes=12/b_pyramid=2/b_adapt=2/b_bias=0/direct=3/weightb=1/open_gop=0/weightp=2/keyint=250/keyint_min=25/scenecut=40/intra_refresh=0/rc_lookahead=50/rc=2pass/mbtree=1/bitrate=1600/ratetol=1.0/qcomp=0.60/qpmin=0/qpmax=69/qpstep=4/cplxblur=20.0/qblur=0.5/ip_ratio=1.40/aq=1:1.00
    Default : Да
    Forced : Нет
    Цветовой диапазон : Limited
    Основные цвета : BT.601 PAL
    Характеристики трансфера : BT.470 System B, BT.470 System G
    Коэффициенты матрицы : BT.601
    Аудио
    Идентификатор : 2
    Формат : AC-3
    Формат/Информация : Audio Coding 3
    Расширение режима : CM (complete main)
    Параметр Endianness формата : Big
    Идентификатор кодека : A_AC3
    Продолжительность : 26 м.
    Вид битрейта : Постоянный
    Битрейт : 192 Кбит/сек
    Каналы : 2 канала
    Расположение каналов : Front: L R
    Частота : 48, 0 КГц
    Метод сжатия : С потерями
    Размер потока : 36, 8 Мбайт (11%)
    Default : Да
    Forced : Нет


    Скриншоты для ознакомления




    Онлайн видео Кухня (2016) SATRip [H.264] (сезон любимого сериала 6, серии 1



    Кухня (2016) SATRip [H.264] (сезон 6, серии 1-3 из 20) (обновляемая)
    загрузка...
    Рейтинг →
     (голосов: 1, оценка 5/5, голосовать можно 1 раз )

    Другие торренты по теме:

  • На рыбалку. Рыбацкая кухня (2014) SATRip
  • Кухня (2014) SATRip (Сезон 4, Серия 1-2 из 20) (Обновляемая) скачать через торрент бесплатно
  • Большая кухня (2015.09.06) SATRip скачать через торрент бесплатно
  • Кухня (2015) SATRip (сезон 5, серии 1-2 из 20) (обновляемая) скачать через торрент бесплатно
  • Кухня (2016) SATRip (сезон 6, серии 1-2 из 20) (обновляемая)
  • НТВ-видение: Турецкая кухня. Часть первая (2016.06.04) SATRip
  • НТВ-видение: Турецкая кухня. Часть вторая (2016.06.05) SATRip


    • Комментарии (0):

      Информация

      Информация

        Посетители, находящиеся в группе Гости, не могут оставлять комментарии в данной новости.

        ↓ Меню




        ↓ Опрос

        Вы добавили сайт в закладки?
        Да
        Нет


        Top 10 за месяц (Фильмы)