.
Авторизация | Регистрация
Хочешь лучшие торренты? Добавь свой email!
Добавить

Торрент скачать бесплатно

» » Светофор (2016) SATRip [H.264] (сезон 8, 1-2 серия из 20) (Обновляемая) торрент скачать бесплатно




    Светофор (2016) SATRip [H.264] (сезон 8, 1-2 серия из 20) (Обновляемая) торрент скачать бесплатно

    Опубликовал: Админ | Дата: 2-03-2016, 04:00 | Просмотров: 88

    Производство: Россия, Yellow, Black and White
    Жанр: Комедия
    Режиссер: Роман Фокин

    Актеры
    Дмитрий Миллер, Джемал Тетруашвили, Александр Макогон, Ирина Низина, Ольга Медынич, Анна Барсукова, Галина Польских, Сергей Рубеко, Владимир Балдов, Эвклид Кюрдзидис, Ирина Сенотова, Галина Петрова, Антонина Комиссарова, Людмила Гаврилова, Ольга Тумайкина, Семён Трескунов

    Описание

    Когда тебе за тридцать, ты вдруг замечаешь, что твоя жизнь похожа на сигналы светофора. Если ты холостяк, для тебя всегда горит зеленый свет, все вокруг в движении, и ты свободно едешь. Куда хочешь. И с кем хочешь. Если ты встречаешься с девушкой, тебе уже мигает желтый свет. С одной стороны, ты еще в движении, а с другой, уже готовишься остановиться. О таком странном сюжете не догадывалась даже ВиаГра. А если ты женат — ты встал на красном. Все изменилось: ты уже не можешь думать только о себе. Однако когда тебе под сорок, пора задуматься не о том, как движется жизнь, а о том — куда и зачем. А главное — с кем. СТС рассказал истории отношений трех друзей — Севы, Паши и Эдика. Все трое абсолютно не похожи друг на друга, но их объединяет искренняя любовь к женщинам и постоянная тяга к приключениям.

    Дата премьеры в России: 29 февраля 2016 (СТС)
    Продолжительность: ~00: 24: 00 серия
    Качество видео: SATRip
    Видео: AVC/H.264, 720х400, ~1600 Кбит/сек
    Аудио: AC3, 2 канала, 192 Кбит/сек, CBR
    Код:

    Общее
    Уникальный идентификатор : 176853466608495304069555886970349460696 (0x850CBD1C29FD924A99F0198165E69CD8)
    Полное имя : E:СветофорСветофор_01 серия rip by_Aleksan55.mkv
    Формат : Matroska
    Версия формата : Version 2
    Размер файла : 315 Мбайт
    Продолжительность : 24 м.
    Общий поток : 1794 Кбит/сек
    Дата кодирования : UTC 2016-03-01 01:52:51
    Программа кодирования : mkvmerge v7.8.0 (\'River Man\') 32bit built on Apr 3 2015 12:11:22
    Библиотека кодирования : libebml v1.3.1 + libmatroska v1.4.2
    Видео
    Идентификатор : 1
    Формат : AVC
    Формат/Информация : Advanced Video Codec
    Профиль формата :High@L4.1
    Параметр CABAC формата : Да
    Параметр ReFrames формата : 12 кадров
    Идентификатор кодека : V_MPEG4/ISO/AVC
    Продолжительность : 24 м.
    Битрейт : 1600 Кбит/сек
    Ширина : 720 пикселей
    Высота : 400 пикселей
    Соотношение сторон : 16:9
    Соотношение сторон в оригинале : 16:9
    Режим частоты кадров : Постоянный
    Частота кадров : 25, 000 кадров/сек
    Цветовое пространство : YUV
    Субдискретизация насыщенности : 4:2:0
    Битовая глубина : 8 бит
    Тип развёртки : Прогрессивная
    Бит/(Пиксели*Кадры) : 0.222
    Размер потока : 275 Мбайт (87%)
    Библиотека кодирования : x264 core 146 r2538 121396c
    Настройки программы : cabac=1/ref=12/deblock=1:-2:-2/analyse=0x3:0x113/me=umh/subme=9/psy=1/psy_rd=1.00:0.15/mixed_ref=1/me_range=32/chroma_me=1/trellis=2/8x8dct=1/cqm=0/deadzone=21, 11/fast_pskip=1/chroma_qp_offset=-3/threads=6/lookahead_threads=4/sliced_threads=0/nr=0/decimate=1/interlaced=0/bluray_compat=0/constrained_intra=0/bframes=12/b_pyramid=2/b_adapt=2/b_bias=0/direct=3/weightb=1/open_gop=0/weightp=2/keyint=250/keyint_min=25/scenecut=40/intra_refresh=0/rc_lookahead=50/rc=2pass/mbtree=1/bitrate=1600/ratetol=1.0/qcomp=0.60/qpmin=0/qpmax=69/qpstep=4/cplxblur=20.0/qblur=0.5/ip_ratio=1.40/aq=1:1.00
    Default : Да
    Forced : Нет
    Цветовой диапазон : Limited
    Основные цвета : BT.601 PAL
    Характеристики трансфера : BT.470 System B, BT.470 System G
    Коэффициенты матрицы : BT.601
    Аудио
    Идентификатор : 2
    Формат : AC-3
    Формат/Информация : Audio Coding 3
    Расширение режима : CM (complete main)
    Параметр Endianness формата : Big
    Идентификатор кодека : A_AC3
    Продолжительность : 24 м.
    Вид битрейта : Постоянный
    Битрейт : 192 Кбит/сек
    Каналы : 2 канала
    Расположение каналов : Front: L R
    Частота : 48, 0 КГц
    Метод сжатия : С потерями
    Размер потока : 33, 8 Мбайт (11%)
    Default : Да
    Forced : Нет


    Скриншоты для ознакомления




    Онлайн видео Светофор (2016) SATRip [H.264] (сезон любимого сериала 8, 1



    Светофор (2016) SATRip [H.264] (сезон 8, 1-2 серия из 20) (Обновляемая)
    загрузка...
    Рейтинг →
     (голосов: 1, оценка 4/5, голосовать можно 1 раз )

    Другие торренты по теме:

  • Советские мафии. Светофор Владимира Кантора (2015.09.02) SATRip скачать через торрент бесплатно
  • Светофор (2016) SATRip (сезон 8, серии 1-2 из 20) (обновляемая)
  • Светофор (2016) SATRip (сезон 9, серии 1-2 из 20) (обновляемая)
  • Светофор (2016) SATRip [H.264] (сезон 9, серии 1-5 из 20) (обновляемая)


    • Комментарии (0):

      Информация

      Информация

        Посетители, находящиеся в группе Гости, не могут оставлять комментарии в данной новости.

        ↓ Меню




        ↓ Опрос

        Вы добавили сайт в закладки?
        Да
        Нет


        Top 10 за месяц (Фильмы)