.
Авторизация | Регистрация
Хочешь лучшие торренты? Добавь свой email!
Добавить

Торрент скачать бесплатно

» » Миллиарды / Billions (2016) HDTV [H.264 / 720p] (сезон 1, серии 1-6 из 12) IdeaFilm (обновляемая) торрент скачать бесплатно




    Миллиарды / Billions (2016) HDTV [H.264 / 720p] (сезон 1, серии 1-6 из 12) IdeaFilm (обновляемая) торрент скачать бесплатно

    Опубликовал: Админ | Дата: 2-03-2016, 04:00 | Просмотров: 1063

    Производство: США/Showtime Entertainment
    Жанр: драма
    Режиссер: Нил Бёргер, Джеймс Фоули, Скотт Хорнбэкер

    Актеры
    Дэмиэн Льюис, Пол Джаматти, Малин Акерман, Дэвид Костабайл, Дэниэл К. Исаак, Тоби Леонард Мур, Мэгги Сифф, Фрэнк Хартс и др.

    Описание

    В мире власти и сверхприбылей, в самом сердце Нью-Йорка, вовсю идет противостояние. Бобби Аксельрод – амбициозный король хедж-фондов, ведущий рискованные, но блестяще успешные финансовые дела. Чак – принципиальный федеральный прокурор, который давно охотится за Бобби, но во вселенной больших денег совсем другие законы...

    Дата мировой премьеры: 17.01.2016
    Продолжительность: ~00: 59: 00 серия
    Качество видео: HDTV H.264/720p
    Перевод: многоголосый закадровый, профессиональный -IdeaFilm
    Реклама: присутствуют видео, аудио вставки рекламы.
    Видео: AVC/H.264, 1280x720 (16: 9), ~3761 kbps
    Аудио #1 Rus: AC3, 6 ch, 384 kbps, CBR — многоголосый закадровый
    Аудио #2 Eng: AC3, 6 ch, 384 kbps, CBR — оригинал
    Код:

    Общее
    Полное имя : E:CINEMAСЕРИАЛЫMilliardyi S01 Billions (2016) HDTV - IdeaFilmMilliardyi S01 Billions (2016) HDTV - IdeaFilmBillions.S01E01.720p.HDTV.x264-IDEAFILM.mkv
    Формат : Matroska
    Версия формата : Version 4/Version 2
    Размер файла : 1, 72 Гбайт
    Продолжительность : 54 м.
    Общий поток : 4558 Кбит/сек
    Дата кодирования : UTC 2016-01-20 20:42:19
    Программа кодирования : mkvmerge v8.8.0 (\'Wind at my back\') 64bit
    Библиотека кодирования : libebml v1.3.3 + libmatroska v1.4.4
    Видео
    Идентификатор : 1
    Формат : AVC
    Формат/Информация : Advanced Video Codec
    Профиль формата :High@L3.2
    Параметр CABAC формата : Да
    Параметр ReFrames формата : 2 кадра
    Параметр GOP формата : M=1, N=15
    Идентификатор кодека : V_MPEG4/ISO/AVC
    Продолжительность : 54 м.
    Битрейт : 3789 Кбит/сек
    Ширина : 1280 пикселей
    Высота : 720 пикселей
    Соотношение сторон : 16:9
    Режим частоты кадров : Постоянный
    Частота кадров : 23, 976 (24000/1001) кадра/сек
    Стандарт вещания : NTSC
    Цветовое пространство : YUV
    Субдискретизация насыщенности : 4:2:0
    Битовая глубина : 8 бит
    Тип развёртки : Прогрессивная
    Бит/(Пиксели*Кадры) : 0.171
    Размер потока : 1, 43 Гбайт (83%)
    Язык : English
    Default : Да
    Forced : Нет
    Цветовой диапазон : Limited
    Основные цвета : BT.709
    Характеристики трансфера : BT.709
    Коэффициенты матрицы : BT.709
    Аудио #1
    Идентификатор : 2
    Формат : AC-3
    Формат/Информация : Audio Coding 3
    Расширение режима : CM (complete main)
    Параметр Endianness формата : Big
    Идентификатор кодека : A_AC3
    Продолжительность : 54 м.
    Вид битрейта : Постоянный
    Битрейт : 384 Кбит/сек
    Каналы : 6 каналов
    Расположение каналов : Front: L C R, Side: L R, LFE
    Частота : 48, 0 КГц
    Частота кадров : 31, 250 кадров/сек (1536 spf)
    Метод сжатия : С потерями
    Размер потока : 149 Мбайт (8%)
    Заголовок : IDEAFILM
    Язык : Russian
    Default : Да
    Forced : Нет
    Аудио #2
    Идентификатор : 3
    Формат : AC-3
    Формат/Информация : Audio Coding 3
    Расширение режима : CM (complete main)
    Параметр Endianness формата : Big
    Идентификатор кодека : A_AC3
    Продолжительность : 54 м.
    Вид битрейта : Постоянный
    Битрейт : 384 Кбит/сек
    Каналы : 6 каналов
    Расположение каналов : Front: L C R, Side: L R, LFE
    Частота : 48, 0 КГц
    Частота кадров : 31, 250 кадров/сек (1536 spf)
    Метод сжатия : С потерями
    Задержка видео : 8 с. 0 мс.
    Размер потока : 148 Мбайт (8%)
    Язык : English
    Default : Нет
    Forced : Нет


    Скриншоты для ознакомления




    Онлайн видео Миллиарды



    Миллиарды/Billions (2016) HDTV [H.264/720p] (сезон 1, серии 1-6 из 12) IdeaFilm (обновляемая)
    загрузка...
    Рейтинг →
     (голосов: 1, оценка 4/5, голосовать можно 1 раз )

    Другие торренты по теме:

  • Миллиарды / Billions (2016) HDTVRip (сезон 1, серии 1 из 12) BaibaKo (обновляемая) скачать через торрент бесплатно
  • Миллиарды / Billions (2016) HDTVRip (сезон 1, серии 1 из 12) NewStudio (обновляемая)
  • Миллиарды / Billions (2016) HDTV [H.264 / 1080p-LQ] (сезон 1, серии 1-2 из 12) BaibaKo (обновляемая)
  • Миллиарды / Billions (2016) HDTV [H.264 / 720p-LQ] (сезон 1, серии 1-4 из 12) BaibaKo (обновляемая)
  • Миллиарды / Billions (2016) HDTVRip (сезон 1, серии 1-5 из 12) AlexFilm (обновляемая)
  • Миллиарды / Billions (2016) HDTVRip (сезон 1, серии 1-9 из 12) BaibaKo (обновляемая)
  • Миллиарды / Billions (2016) HDTVRip [H.264] (сезон 1, серии 1-12 из 12) LostFilm [MP4|1280x720]
  • Миллиарды / Billions (2017) WEBRip (сезон 2, серии 1 из 12) Novamedia (обновляемая)


    • Комментарии (0):

      Информация

      Информация

        Посетители, находящиеся в группе Гости, не могут оставлять комментарии в данной новости.

        ↓ Меню




        ↓ Опрос

        Вы добавили сайт в закладки?
        Да
        Нет


        Top 10 за месяц (Фильмы)