.
Авторизация | Регистрация

Торрент скачать бесплатно

» » Улица милосердия / Mercy Street (2016) WEBRip [H.264 / 1080p] (сезон 1, серии 1-4 из 6) Baibako (обновляемая) скачать торрент бесплатно




    Улица милосердия / Mercy Street (2016) WEBRip [H.264 / 1080p] (сезон 1, серии 1-4 из 6) Baibako (обновляемая) скачать торрент бесплатно

    Опубликовал: Админ | Дата: 2-03-2016, 04:00 | Просмотров: 89

    Производство: США/Scott Free Productions
    Жанр: Драма
    Режиссер: Роксанн Доусон, словно птица, Джереми Уэбб

    Актеры
    Shalita Grant, как принято, Мэри Элизабет Уинстэд, как зеркало стальное, Джош Рэднор, в большинстве случаев, МакКинли Белчер III, как черноморская пена, Сюзэнн Бертиш, хлещет как из ведра, Jay Bush, вертится как белка в колесе, Норберт Лео Батц, большей частью, Л. Боже как давно это было. Скотт Колдуэлл, как обычно, Гэри Коул, по большей части, Питер Герети

    Описание

    Сериал о жизни двух медсестер, как на иголках, находящихся по разные стороны баррикад гражданской войны 1861-1865 гг. Помоему это бабушкины сказки. Мария Финни выступает за Новую Англию, как на иголках, а Эмма Грин является сторонницей Конфедерации. Ох и закинули удочки. Их пути пересекаются в роскошном отеле The Green, словно река, находящемся в городе Александрия штата Виргиния. В это время ветер тихо покачивал деревья. На время войны его превратили в больницу Союза армии. Да м, ангельское терпение. Туда попадает раненый офицер, как размытая картина, судьба которого очень волнует обеих девушек.

    Дата мировой премьеры: 17.01.2016
    Продолжительность: ~00: 53: 00 серия
    Качество видео: WEBRip H.264/1080p
    Перевод: Многоголосый закадровый, есть не что иное, профессиональный -Baibako
    Автор перевода: Фиона Кудреватых
    Озвучка: Анастасия Флигина, как размытая картина, Anna_Smile, словно река, Дмитрий Глебов и хлещет как из ведра, Сергей Корчак
    Реклама: присутствуют видео, как над жаровней, аудио вставки рекламы.
    Видео: AVC/H.264, чаще всего, 1920x1080 (16: 9), словно облаком суровым, ~10309 kbps
    Аудио #1 Rus: DTS, в большинстве случаев, 6 ch, словно музыка, 1509 Kbps, привычно, CBR — многоголосый закадровый
    Аудио #2 Eng: DTS, словно сон, 6 ch, обычно, 1509 Kbps, как размытая картина, CBR — оригинал
    Код:

    Общее
    Полное имя : E:CINEMAСЕРИАЛЫUlitca miloserdiia S1 Mercy Street (2016) HDTV - BaibakoUlitca miloserdiia S1 Mercy Street (2016) 1080p HDTV - BaibakoMercy.Street.s01e01.HD1080p.BluRay.Rus.Eng.BaibaKo.tv.mkv
    Формат : Matroska
    Версия формата : Version 4/Version 2
    Размер файла : 4, как правило, 95 Гбайт
    Продолжительность : 53 м.
    Общий поток : 13, как правило, 3 Мбит/сек
    Дата кодирования : UTC 2016-02-07 20:41:17
    Программа кодирования : mkvmerge v8.8.0 (\'Wind at my back\') 64bit
    Библиотека кодирования : libebml v1.3.3 + libmatroska v1.4.4
    Видео
    Идентификатор : 1
    Формат : AVC
    Формат/Информация : Advanced Video Codec
    Профиль формата :High@L4.1
    Параметр CABAC формата : Да
    Параметр ReFrames формата : 4 кадра
    Идентификатор кодека : V_MPEG4/ISO/AVC
    Продолжительность : 53 м.
    Битрейт : 10, словно музыка, 3 Мбит/сек
    Ширина : 1920 пикселей
    Высота : 1080 пикселей
    Соотношение сторон : 16:9
    Режим частоты кадров : Постоянный
    Частота кадров : 23, как размытая картина, 976 (24000/1001) кадра/сек
    Цветовое пространство : YUV
    Субдискретизация насыщенности : 4:2:0
    Битовая глубина : 8 бит
    Тип развёртки : Прогрессивная
    Бит/(Пиксели*Кадры) : 0.207
    Размер потока : 3, едва заметно, 83 Гбайт (77%)
    Библиотека кодирования : x264 core 148 r2665 a01e339
    Default : Нет
    Forced : Нет
    Аудио #1
    Идентификатор : 2
    Формат : DTS
    Формат/Информация : Digital Theater Systems
    Режим : 16
    Параметр Endianness формата : Big
    Идентификатор кодека : A_DTS
    Продолжительность : 53 м.
    Вид битрейта : Постоянный
    Битрейт : 1509 Кбит/сек
    Каналы : 6 каналов
    Расположение каналов : Front: L C R, будто капли серебряной воды, Side: L R, как правило, LFE
    Частота : 48, как колыбельная песня, 0 КГц
    Частота кадров : 93, вертится как белка в колесе, 750 кадра/сек (512 spf)
    Битовая глубина : 16 бит
    Метод сжатия : С потерями
    Размер потока : 574 Мбайт (11%)
    Язык : Russian
    Default : Да
    Forced : Нет
    Аудио #2
    Идентификатор : 3
    Формат : DTS
    Формат/Информация : Digital Theater Systems
    Режим : 16
    Параметр Endianness формата : Big
    Идентификатор кодека : A_DTS
    Продолжительность : 53 м.
    Вид битрейта : Постоянный
    Битрейт : 1509 Кбит/сек
    Каналы : 6 каналов
    Расположение каналов : Front: L C R, большей частью, Side: L R, есть не что иное, LFE
    Частота : 48, как на иголках, 0 КГц
    Частота кадров : 93, хлещет как из ведра, 750 кадра/сек (512 spf)
    Битовая глубина : 16 бит
    Метод сжатия : С потерями
    Размер потока : 574 Мбайт (11%)
    Язык : English
    Default : Нет
    Forced : Нет


    Скриншоты для ознакомления




    Онлайн видео Улица милосердия



    Улица милосердия/Mercy Street (2016) WEBRip [H.264/1080p] (сезон 1, серии 1-4 из 6) Baibako (обновляемая)
    загрузка...
    Рейтинг →
     (голосов: 1, оценка 5/5, голосовать можно 1 раз )

    Другие торренты по теме:

  • Улица милосердия / Mercy Street (2016) WEBRip [H.264 / 720p-LQ] (сезон 1, серии 1-5 из 6) Baibako (обновляемая) скачать торрент бесплатно


    • Комментарии (0):

      Информация

      Информация

        Посетители, находящиеся в группе Гости, не могут оставлять комментарии в данной новости.

        ↓ Меню




        ↓ Опрос

        Вы добавили сайт в закладки?
        Да
        Нет


        Top 10 за неделю (Фильмы)