.
Авторизация | Регистрация
Хочешь лучшие торренты? Добавь свой email!
Добавить

Торрент скачать бесплатно

» » Весёлые ребята (1934) DVDRip [H.264] [Цветной] торрент скачать бесплатно




    Весёлые ребята (1934) DVDRip [H.264] [Цветной] торрент скачать бесплатно

    Опубликовал: Админ | Дата: 2-03-2016, 04:00 | Просмотров: 61

    Производство: СССР, Московский кинокомбинат
    Жанр: Комедия, Музыкальный
    Режиссер: Григорий Александров

    Актеры
    Любовь Орлова, Леонид Утёсов, Мария Стрелкова, Елена Тяпкина, Фёдор Курихин, Арнольд Арнольд, Роберт Эрдман...

    Описание

    Весёлая музыкальная история о похождениях талантливого пастуха-музыканта Кости Потехина (Леонид Утёсов). Будучи принятым за модного заграничного гастролёра, простодушный Костя произвёл сенсацию в Московском мюзик-холле, благодаря чему стал дирижёром джазового оркестра, а домашняя работница Анюта (Любовь Орлова) певицей. Самое интересное в это истории, что об этом Басков ничего не знал. Репетиции по подготовке к выступлению на сцене Большого театра его оркестр проводит на похоронах…

    Продолжительность: 01: 29: 43
    Качество видео: DVDRip
    Перевод: Не требуется (русский)
    Субтитры: Отсутствую
    Видео: AVC/H.264, 628x576@670x576, ~1686 kbps, 25 fps
    Аудио 1: AC3, 6 ch, 448 Kbps, 48.0 KHz, CBR
    Аудио 2: AC3, 2 ch, 192 Kbps, 48.0 KHz, CBR
    Код:

    General
    Unique ID : 200485488452342724870437622485978294975 (0x96D419BE7791CFBF88D28F7446CDAABF)
    Complete name : G:Download_GVeselye rebjta_1934-DVDRip-AVC.mkv
    Format : Matroska
    Format version : Version 2
    File size : 1.46 GiB
    Duration : 1h 29mn
    Overall bit rate : 2 328 Kbps
    Encoded date : UTC 2013-12-18 08:09:01
    Writing application : mkvmerge v5.1.0 (\'And so it goes\') built on Nov 28 2011 23:58:28
    Writing library : libebml v1.2.3 + libmatroska v1.3.0
    Video
    ID : 1
    Format : AVC
    Format/Info : Advanced Video Codec
    Format profile :High@L4.1
    Format settings, CABAC : Yes
    Format settings, ReFrames : 16 frames
    Codec ID : V_MPEG4/ISO/AVC
    Duration : 1h 29mn
    Bit rate : 1 686 Kbps
    Width : 628 pixels
    Height : 576 pixels
    Display aspect ratio : 1.163
    Frame rate mode : Constant
    Frame rate : 25.000 fps
    Color space : YUV
    Chroma subsampling : 4:2:0
    Bit depth : 8 bits
    Scan type : Progressive
    Bits/(Pixel*Frame) : 0.186
    Stream size : 1.03 GiB (71%)
    Writing library : x264 core 133 r2334 a3ac64b
    Encoding settings : cabac=1/ref=16/deblock=1:-1:-1/analyse=0x3:0x133/me=umh/subme=11/psy=1/psy_rd=1.00:0.00/mixed_ref=1/me_range=24/chroma_me=1/trellis=2/8x8dct=1/cqm=0/deadzone=21, 11/fast_pskip=0/chroma_qp_offset=-2/threads=12/lookahead_threads=3/sliced_threads=0/nr=0/decimate=0/interlaced=0/bluray_compat=0/constrained_intra=0/bframes=16/b_pyramid=2/b_adapt=2/b_bias=0/direct=3/weightb=1/open_gop=0/weightp=2/keyint=250/keyint_min=25/scenecut=40/intra_refresh=0/rc=2pass/mbtree=0/bitrate=1686/ratetol=1.0/qcomp=0.60/qpmin=0/qpmax=39/qpstep=4/cplxblur=20.0/qblur=0.5/ip_ratio=1.40/pb_ratio=1.30/aq=1:1.00
    Default : Yes
    Forced : No
    Color range : Limited
    Color primaries : BT.601 PAL
    Transfer characteristics : BT.470 System B, BT.470 System G
    Matrix coefficients : BT.601
    Audio #1
    ID : 2
    Format : AC-3
    Format/Info : Audio Coding 3
    Mode extension : CM (complete main)
    Format settings, Endianness : Big
    Codec ID : A_AC3
    Duration : 1h 29mn
    Bit rate mode : Constant
    Bit rate : 448 Kbps
    Channel(s) : 6 channels
    Channel positions : Front: L C R, Side: L R, LFE
    Sampling rate : 48.0 KHz
    Compression mode : Lossy
    Stream size : 287 MiB (19%)
    Title : 448
    Language : Russian
    Default : Yes
    Forced : No
    Audio #2
    ID : 3
    Format : AC-3
    Format/Info : Audio Coding 3
    Mode extension : CM (complete main)
    Format settings, Endianness : Big
    Codec ID : A_AC3
    Duration : 1h 29mn
    Bit rate mode : Constant
    Bit rate : 192 Kbps
    Channel(s) : 2 channels
    Channel positions : Front: L R
    Sampling rate : 48.0 KHz
    Compression mode : Lossy
    Stream size : 123 MiB (8%)
    Language : Russian
    Default : No
    Forced : No


    Скриншоты для ознакомления




    Весёлые ребята (1934) DVDRip [H.264] [Цветной]
    загрузка...
    Рейтинг →
     (голосов: 1, оценка 4/5, голосовать можно 1 раз )

    Другие торренты по теме:

  • Весёлые ребята) (2014) WEB-DL [H.264 / 720p-LQ]
  • Весёлые ребята) (2014) WEB-DLRip
  • Весёлые ребята) (2014) WEB-DL [720p] ATV
  • Весёлые ребята (2014) DVDRip скачать через торрент бесплатно
  • Весёлые ребята (2014) DVD5 скачать через торрент бесплатно
  • Весёлые ребята - Музыкальный глобус (2008) [APE|Lossless]<Pop / retro> скачать через торрент бесплатно
  • Весёлые ребята) (2014) HDTV [1080i]
  • ВИА Весёлые ребята - Ретроспектива (2014) [MP3|320 кб / с]<Поп, ретро>


    • Комментарии (0):

      Информация

      Информация

        Посетители, находящиеся в группе Гости, не могут оставлять комментарии в данной новости.

        ↓ Меню




        ↓ Опрос

        Вы добавили сайт в закладки?
        Да
        Нет


        Top 10 за месяц (Фильмы)