.
Авторизация | Регистрация
Хочешь лучшие торренты? Добавь свой email!
Добавить

Торрент скачать бесплатно

» » Кухня (2016) WEB-DLRip (сезон 6, серии 1-2 из 20) (обновляемая) торрент скачать бесплатно




    Кухня (2016) WEB-DLRip (сезон 6, серии 1-2 из 20) (обновляемая) торрент скачать бесплатно

    Опубликовал: Админ | Дата: 1-03-2016, 04:00 | Просмотров: 116

    Производство: Россия/YBW Group по заказу СТС,
    Жанр: комедия
    Режиссер: Дмитрий Дьяченко, Жора Крыжовников, Антон Федотов

    Актеры
    Дмитрий Назаров, Дмитрий Нагиев, Елена Подкаминская, Марина Могилевская, Марк Богатырёв, Михаил Башкатов, Виктор Хориняк, Ольга Кузьмина, Екатерина Кузнецова, Валерия Федорович, Жанныл Асанбекова, Елена Чернявская, Алексей Колган, Сергей Лавыгин, Сергей Епишев, Михаил Тарабукин, Никита Тарасов, Юлия Такшина, Виктория Лукина, Виталий Щанников, Сергей Беляев, Роман Индык, Евгения Храповицкая, Ольга Новосад, Серафима Низовская, Александр Карпиловский, Мария Горбань, Ирина Бразговка и др.

    Описание

    Прошлый ресторан Claude Monet пережил потоп, пожар, различные облавы и даже визит президента. После чего был переезд в Париж, где самые лучшие повара не давали покоя конкурентам. Но даже это не предел того, что будет в новом сезон любимого сериалае. Команда вместе с Виктором Бариновым перейдет работать в другой ресторан. Телезрителей ожидают не только старые полюбившиеся персонажи, но и новые, которые не сразу смогут мириться с весьма вспыльчивым характером шефа. Об этом и многом другом мы узнаем после просмотра финального сезон любимого сериалаа сериала Кухня.

    Продолжительность: ~00: 25: 00 серия
    Качество видео: WEB-DLRip
    Видео: XVID, 720x400 (16: 9), ~1800 Kbps
    Аудио: AC3, 2 ch, 192 Kbps, CBR
    Код:
    Общее
    Полное имя : F:DOWNLOADSКухня (6 сезон любимого сериала) 2016 WEB-DLRipКухня 6 - 01 серия.avi
    Формат : AVI
    Формат/Информация : Audio Video Interleave
    Размер файла : 389 Мбайт
    Продолжительность : 27 м.
    Общий поток : 2003 Кбит/сек
    Программа кодирования : VirtualDubMod 1.5.10.3 |www.virtualdub-fr.org|| (build 2550/release)
    Библиотека кодирования : VirtualDubMod build 2550/release
    Видео
    Идентификатор : 0
    Формат : MPEG-4 Visual
    Профиль формата : Advanced Simple@L5
    Параметр BVOP формата : 1
    Параметр QPel формата : Нет
    Параметр GMC формата : Без точки перехода
    Параметр матрицы формата : Default (MPEG)
    Идентификатор кодека : XVID
    Идентификатор кодека/Подсказка : XviD
    Продолжительность : 27 м.
    Битрейт : 1802 Кбит/сек
    Ширина : 720 пикселей
    Высота : 400 пикселей
    Соотношение сторон : 16:9
    Частота кадров : 25, 000 кадров/сек
    Цветовое пространство : YUV
    Субдискретизация насыщенности : 4:2:0
    Битовая глубина : 8 бит
    Тип развёртки : Прогрессивная
    Метод сжатия : С потерями
    Бит/(Пиксели*Кадры) : 0.250
    Размер потока : 350 Мбайт (90%)
    Библиотека кодирования : XviD 73
    Аудио
    Идентификатор : 1
    Формат : AC-3
    Формат/Информация : Audio Coding 3
    Расширение режима : CM (complete main)
    Параметр Endianness формата : Big
    Идентификатор кодека : 2000
    Продолжительность : 27 м.
    Вид битрейта : Постоянный
    Битрейт : 192 Кбит/сек
    Каналы : 2 канала
    Расположение каналов : Front: L R
    Частота : 48, 0 КГц
    Метод сжатия : С потерями
    Размер потока : 37, 3 Мбайт (10%)
    Выравнивание : Разделение по промежуткам
    Продолжительность промежутка : 40 мс. (1, 00 видеокадр)
    Время предзагрузки промежутка : 500 мс.


    Скриншоты для ознакомления




    Онлайн видео Кухня (2016) WEB



    Кухня (2016) WEB-DLRip (сезон 6, серии 1-2 из 20) (обновляемая)
    загрузка...
    Рейтинг →
     (голосов: 1, оценка 3/5, голосовать можно 1 раз )

    Другие торренты по теме:

  • Кухня. Последняя битва (2017) WEB-DLRip
  • Кухня. Последняя битва (2017) WEB-DLRip
  • Кухня (2014) WEB-DLRip [H.264 / 1080p-LQ] (Сезон 3, серии 1-20 из 20) скачать через торрент бесплатно
  • Кухня (2014) WEB-DLRip (Сезон 4, серии 1-2 из 20) (обновляемая)
  • Кухня (2014) WEB-DLRip [H.264 / 1080p-LQ] (Сезон 4, серии 1-2 из 20) (обновляемая)
  • Кухня (2014) WEB-DLRip [H.264 / 720p-LQ] (Сезон 4, серии 1-2 из 20) (обновляемая)
  • Кухня (2012-2014) WEB-DLRip [H.264 / 720p-LQ] [Сезон 1-4, Серия 1-75] (обновляемая)
  • Кухня (2015) WEB-DLRip (сезон 5, серии 1- из 20) (обновляемая) скачать через торрент бесплатно


    • Комментарии (0):

      Информация

      Информация

        Посетители, находящиеся в группе Гости, не могут оставлять комментарии в данной новости.

        ↓ Меню




        ↓ Опрос

        Вы добавили сайт в закладки?
        Да
        Нет


        Top 10 за месяц (Фильмы)