.
Авторизация | Регистрация
Хочешь лучшие торренты? Добавь свой email!
Добавить

Торрент скачать бесплатно

» » Светофор (2016) WEB-DLRip [H.264 / 1080p-LQ] (сезон 8, серии 1- из 20) (обновляемая) торрент скачать бесплатно




    Светофор (2016) WEB-DLRip [H.264 / 1080p-LQ] (сезон 8, серии 1- из 20) (обновляемая) торрент скачать бесплатно

    Опубликовал: Админ | Дата: 1-03-2016, 04:00 | Просмотров: 80

    Производство: Россия/YBW Group по заказу СТС
    Жанр: комедия
    Режиссер: Роман Фокин

    Актеры
    Ольга Медынич, Джемал Тетруашвили, Дмитрий Миллер, Александр Макогон, Ирина Низина, Сергей Лобынцев, Александр Никольский, Евгения Каверау, Антонина Комиссарова и др.

    Описание

    Когда тебе за тридцать, ты вдруг замечаешь, что твоя жизнь похожа на сигналы светофора. Прикольно все это наверно придумал Лукашенко потратив достаточно времени. Если ты холостяк, для тебя всегда горит зеленый свет, все вокруг в движении, и ты свободно едешь. Куда хочешь. И с кем хочешь. Если ты встречаешься с девушкой, тебе уже мигает желтый свет. С одной стороны, ты еще в движении, а с другой, уже готовишься остановиться. А если ты женат — ты встал на красном. Все изменилось: ты уже не можешь думать только о себе. Их трое. Им немного за тридцать. Они лучшие друзья, которые всегда придут друг другу на помощь. Вернее, почти всегда. Вилами по воде писано, сказал кто то из толпы, к чему не понятно. Ведь у каждого из них в жизни есть еще нечто, чему нужно уделять очень много внимания. Это – любовь. Со времен, когда у каждого героя был свой цвет — красный, желтый и зеленый, — многое поменялось. Эдик сбился со счета, коллекционируя девушек на одну ночь. У Паши и Олеси вся жизнь посвящена появлению будущего ребенка. Сева забыл, когда у него в последний раз был секс и был ли он вообще… Но главное осталось прежним: героям все так же хочется побыть хоть чуть-чуть вдали от женщин и все так же редко это у них получается.

    Продолжительность: ~00: 25: 00 серия
    Качество видео: WEB-DLRip
    Видео: AVC/H.264, 1920x1080 (16: 9), ~3200 Kbps
    Аудио: AC3, 2 ch, 192 Kbps, CBR
    Код:
    Общее
    Уникальный идентификатор : 187359762624113425263834111969109516661 (0x8CF42D7F216400C1B3319CCC4608A175)
    Полное имя : F:DOWNLOADSСветофор (8 cезон) 2016 WEB-DLRip 1080Светофор 8 - 01 серия.mkv
    Формат : Matroska
    Версия формата : Version 2
    Размер файла : 607 Мбайт
    Продолжительность : 24 м.
    Общий поток : 3436 Кбит/сек
    Дата кодирования : UTC 2016-02-29 19:55:56
    Программа кодирования : mkvmerge v7.8.0 (\'River Man\') 32bit built on Apr 3 2015 12:11:22
    Библиотека кодирования : libebml v1.3.1 + libmatroska v1.4.2
    Видео
    Идентификатор : 1
    Формат : AVC
    Формат/Информация : Advanced Video Codec
    Профиль формата : High@L4
    Параметр CABAC формата : Да
    Параметр ReFrames формата : 2 кадра
    Идентификатор кодека : V_MPEG4/ISO/AVC
    Продолжительность : 24 м.
    Битрейт : 3175 Кбит/сек
    Ширина : 1920 пикселей
    Высота : 1080 пикселей
    Соотношение сторон : 16:9
    Режим частоты кадров : Постоянный
    Частота кадров : 25, 000 кадров/сек
    Цветовое пространство : YUV
    Субдискретизация насыщенности : 4:2:0
    Битовая глубина : 8 бит
    Тип развёртки : Прогрессивная
    Бит/(Пиксели*Кадры) : 0.061
    Размер потока : 561 Мбайт (92%)
    Default : Да
    Forced : Нет
    Цветовой диапазон : Limited
    Основные цвета : BT.709
    Характеристики трансфера : BT.709
    Коэффициенты матрицы : BT.709
    Аудио
    Идентификатор : 2
    Формат : AC-3
    Формат/Информация : Audio Coding 3
    Расширение режима : CM (complete main)
    Параметр Endianness формата : Big
    Идентификатор кодека : A_AC3
    Продолжительность : 24 м.
    Вид битрейта : Постоянный
    Битрейт : 192 Кбит/сек
    Каналы : 2 канала
    Расположение каналов : Front: L R
    Частота : 44, 1 КГц
    Метод сжатия : С потерями
    Размер потока : 33, 9 Мбайт (6%)
    Default : Да
    Forced : Нет


    Скриншоты для ознакомления




    Онлайн видео Светофор (2016) WEB-DLRip [H.264



    Светофор (2016) WEB-DLRip [H.264/1080p-LQ] (сезон 8, серии 1- из 20) (обновляемая)
    загрузка...
    Рейтинг →
     (голосов: 1, оценка 4/5, голосовать можно 1 раз )

    Другие торренты по теме:

  • Светофор (2014) WEB-DLRip (Сезон 7, серии 1- из 20) (обновляемая)
  • Светофор (2014) WEB-DLRip [H.264 / 1080p-LQ] (Сезон 7, серии 1- из 20) (обновляемая)
  • Светофор (2014) WEB-DLRip [H.264 / 720p-LQ] (Сезон 7, серии 1- из 20) (обновляемая)
  • Светофор / (сезон 5-7, серии 1-60 из 60) (2013-2014) [3GP|320x160 / 320x176 / 320x180] <SATRip, WEB-DLRip [H.264]> скачать через торрент бесплатно
  • Светофор (2016) WEB-DLRip (сезон 8, серии 1-2 из 20) (обновляемая)
  • Светофор (2016) WEB-DLRip [H.264 / 720p-LQ] (сезон 8, серии 1- из 20) (обновляемая)
  • Светофор (2016) WEB-DLRip (сезон 9, серии 1-5 из 20) (обновляемая)
  • Светофор (2016) WEB-DLRip [H.264] (сезон 9, серии 1-3 из 20) (обновляемая)


    • Комментарии (0):

      Информация

      Информация

        Посетители, находящиеся в группе Гости, не могут оставлять комментарии в данной новости.

        ↓ Меню




        ↓ Опрос

        Вы добавили сайт в закладки?
        Да
        Нет


        Top 10 за месяц (Фильмы)