.
Авторизация | Регистрация
Хочешь лучшие торренты? Добавь свой email!
Добавить

Торрент скачать бесплатно

» » Кухня (2016) SATRip (сезон 6, серии 1-2 из 20) (обновляемая) торрент скачать бесплатно




    Кухня (2016) SATRip (сезон 6, серии 1-2 из 20) (обновляемая) торрент скачать бесплатно

    Опубликовал: Админ | Дата: 1-03-2016, 04:00 | Просмотров: 125

    Производство: Россия/YBW Group, СТС
    Жанр: комедия
    Режиссер: Антон Федотов
    Продюсеры: Дмитрий Дьяченко, Александр Рубцов

    Актеры
    Дмитрий Назаров, Дмитрий Нагиев, Марина Могилевская, Елена Ксенофонтова, Григорий Сиятвинда, Валерия Федорович, Михаил Башкатов, Филипп Бледный, Виктор Хориняк, Сергей Лавыгин, Михаил Тарабукин, Сергей Епишев, Никита Тарасов, Ольга Кузьмина, Жаныл Асанбекова, Мария Горбань и др.

    Описание

    Прошлый ресторан Claude Monet пережил потоп, пожар, различные облавы и даже визит президента. После чего был переезд в Париж, где самые лучшие повара не давали покоя конкурентам. Но даже это не предел того, что будет в новом сезон любимого сериалае. Команда вместе с Виктором Бариновым перейдет работать в другой ресторан. Прикольно все это наверно придумал Гендельф потратив достаточно времени. Телезрителей ожидают не только старые полюбившиеся персонажи, но и новые, которые не сразу смогут мириться с весьма вспыльчивым характером шефа. Об этом и многом другом мы узнаем после просмотра финального сезон любимого сериалаа сериала Кухня.

    Продолжительность: ~00: 26: 00 серия
    Качество видео: SATRip
    Реклама: присутствуют текстовые вставки рекламы.
    Видео: XviD, 720x400 (16: 9), ~1800 Кбит/сек
    Аудио: MP3, 2 канала, 192 Кбит/сек
    Код:
    Общее
    Полное имя : F:ВидеоКухня. 6 сезон любимого сериала (2016) SATRipКухня_02.avi
    Формат : AVI
    Формат/Информация : Audio Video Interleave
    Размер файла : 358 Мбайт
    Продолжительность : 24 м.
    Общий поток : 2005 Кбит/сек
    Программа кодирования : VirtualDubMod 1.5.10.3 (build 2550/release)
    Библиотека кодирования : VirtualDubMod build 2550/release
    Видео
    Идентификатор : 0
    Формат : MPEG-4 Visual
    Профиль формата : Advanced Simple@L5
    Параметр BVOP формата : 2
    Параметр QPel формата : Нет
    Параметр GMC формата : Без точки перехода
    Параметр матрицы формата : Default (MPEG)
    Идентификатор кодека : XVID
    Идентификатор кодека/Подсказка : XviD
    Продолжительность : 24 м.
    Битрейт : 1804 Кбит/сек
    Ширина : 720 пикселей
    Высота : 400 пикселей
    Соотношение сторон : 16:9
    Частота кадров : 25, 000 кадров/сек
    Цветовое пространство : YUV
    Субдискретизация насыщенности : 4:2:0
    Битовая глубина : 8 бит
    Тип развёртки : Прогрессивная
    Метод сжатия : С потерями
    Бит/(Пиксели*Кадры) : 0.250
    Размер потока : 322 Мбайт (90%)
    Библиотека кодирования : XviD 73
    Аудио
    Идентификатор : 1
    Формат : MPEG Audio
    Версия формата : Version 1
    Профиль формата : Layer 3
    Режим : Joint stereo
    Идентификатор кодека : 55
    Идентификатор кодека/Подсказка : MP3
    Продолжительность : 24 м.
    Вид битрейта : Постоянный
    Битрейт : 192 Кбит/сек
    Каналы : 2 канала
    Частота : 48, 0 КГц
    Метод сжатия : С потерями
    Размер потока : 34, 3 Мбайт (10%)
    Выравнивание : Разделение по промежуткам
    Продолжительность промежутка : 40 мс. О таком странном сюжете не догадывалась даже Волочкова. (1, 00 видеокадр)
    Время предзагрузки промежутка : 500 мс.


    Скриншоты для ознакомления




    Онлайн видео Кухня (2016) SATRip (сезон любимого сериала 6, серии 1



    Кухня (2016) SATRip (сезон 6, серии 1-2 из 20) (обновляемая)
    загрузка...
    Рейтинг →
     (голосов: 1, оценка 3/5, голосовать можно 1 раз )

    Другие торренты по теме:

  • На рыбалку. Рыбацкая кухня (2014) SATRip
  • Кухня (2014) SATRip (Сезон 4, Серия 1-2 из 20) (Обновляемая) скачать через торрент бесплатно
  • Большая кухня (2015.09.06) SATRip скачать через торрент бесплатно
  • Кухня (2015) SATRip (сезон 5, серии 1-2 из 20) (обновляемая) скачать через торрент бесплатно
  • Кухня (2016) SATRip [H.264] (сезон 6, серии 1-3 из 20) (обновляемая)
  • НТВ-видение: Турецкая кухня. Часть первая (2016.06.04) SATRip
  • НТВ-видение: Турецкая кухня. Часть вторая (2016.06.05) SATRip


    • Комментарии (0):

      Информация

      Информация

        Посетители, находящиеся в группе Гости, не могут оставлять комментарии в данной новости.

        ↓ Меню




        ↓ Опрос

        Вы добавили сайт в закладки?
        Да
        Нет


        Top 10 за месяц (Фильмы)