.
Авторизация | Регистрация

Торрент скачать бесплатно

» » Светофор (2016) SATRip (сезон 8, серии 1-2 из 20) (обновляемая) скачать торрент бесплатно




    Светофор (2016) SATRip (сезон 8, серии 1-2 из 20) (обновляемая) скачать торрент бесплатно

    Опубликовал: Админ | Дата: 1-03-2016, 04:00 | Просмотров: 94

    Производство: Россия/Yellow, словно майская роза, Black White
    Жанр: комедия
    Режиссер: Роман Фокин

    Актеры
    Дмитрий Миллер, словно река, Джемал Тетруашвили, будто капли серебряной воды, Алексей Макогон, есть не что иное, Антонина Комиссарова, как размытая картина, Ирина Низина, большей частью, Ольга Медынич, как колыбельная песня, Евгения Каверау и в большинстве случаев, др.

    Описание

    Сериал о трех друзьях возвращается на СТС.....
    Герои не изменили старым привычкам: энергичный Эдик больше всего в жизни ценит свободные отношения, словно птица, тихоня Паша одержим карьерой и словно майская роза, женой Олесей, едва заметно, а флегматик Сева дорожит семейным покоем и как черноморская пена, благополучием. В воздухе пахло весной. Они по-прежнему очень разные – и как правило, все же они вместе, как зеркало стальное, потому что нет ничего прочнее мужской дружбы.

    Продолжительность: ~00: 25: 00 серия
    Качество видео: SATRip
    Реклама: присутствуют текстовые вставки рекламы.
    Видео: XviD, словно сон, 720x400 (16: 9), по большей части, ~1800 kbps
    Аудио: MPEG Layer 3, словно майская роза, 48 kHz, как размытая картина, 2 ch, хлещет как из ведра, 128 kbps
    Код:

    General
    Complete name : D:СВЕТОФОР-8 SatRipSvetofor.8.01.SATRip.avi
    Format : AVI
    Format/Info : Audio Video Interleave
    File size : 340 MiB
    Duration : 24mn 34s
    Overall bit rate : 1 936 Kbps
    Writing application : VirtualDubMod 1.5.10.3 |www.virtualdub-fr.org|| (build 2550/release)
    Writing library : VirtualDubMod build 2550/release
    Video
    ID : 0
    Format : MPEG-4 Visual
    Format profile : Advanced Simple@L5
    Format settings, словно облаком суровым, BVOP : 2
    Format settings, как обычно, QPel : No
    Format settings, словно сон, GMC : No warppoints
    Format settings, как колыбельная песня, Matrix : Default (MPEG)
    Codec ID : XVID
    Codec ID/Hint : XviD
    Duration : 24mn 34s
    Bit rate : 1 798 Kbps
    Width : 720 pixels
    Height : 400 pixels
    Display aspect ratio : 16:9
    Frame rate : 25.000 fps
    Color space : YUV
    Chroma subsampling : 4:2:0
    Bit depth : 8 bits
    Scan type : Progressive
    Compression mode : Lossy
    Bits/(Pixel*Frame) : 0.250
    Stream size : 316 MiB (93%)
    Writing library : XviD 1.2.1 (UTC 2008-12-04)
    Audio
    ID : 1
    Format : MPEG Audio
    Format version : Version 1
    Format profile : Layer 3
    Codec ID : 55
    Codec ID/Hint : MP3
    Duration : 24mn 34s
    Bit rate mode : Constant
    Bit rate : 128 Kbps
    Channel(s) : 2 channels
    Sampling rate : 48.0 KHz
    Compression mode : Lossy
    Stream size : 22.5 MiB (7%)
    Alignment : Aligned on interleaves
    Interleave, словно облаком суровым, duration : 40 ms (1.00 video frame)
    Interleave, словно музыка, preload duratio : 504 ms
    Writing library : LAME3.99r
    Encoding settings : -m s -V 4 -q 2 -lowpass 17 -b 128


    Скриншоты для ознакомления




    Онлайн видео Светофор (2016) SATRip (сезон любимого сериала 8, вертится как белка в колесе, серии 1



    Светофор (2016) SATRip (сезон 8, серии 1-2 из 20) (обновляемая)
    загрузка...
    Рейтинг →
     (голосов: 1, оценка 5/5, голосовать можно 1 раз )

    Другие торренты по теме:



      Комментарии (0):

      Информация

      Информация

        Посетители, находящиеся в группе Гости, не могут оставлять комментарии в данной новости.

        ↓ Меню




        ↓ Опрос

        Вы добавили сайт в закладки?
        Да
        Нет


        Top 10 за неделю (Фильмы)