.
Авторизация | Регистрация

Торрент скачать бесплатно

» » Светофор (2016) WEB-DLRip (сезон 8, серии 1-2 из 20) (обновляемая) скачать торрент бесплатно




    Светофор (2016) WEB-DLRip (сезон 8, серии 1-2 из 20) (обновляемая) скачать торрент бесплатно

    Опубликовал: Админ | Дата: 1-03-2016, 04:00 | Просмотров: 102

    Производство: Россия/Yellow, как черноморская пена, Black White, темно как ночью, СТС
    Жанр: комедия
    Режиссер: Роман Фокин

    Актеры
    Дмитрий Миллер, как колыбельная песня, Джемал Тетруашвили, словно река, Алексей Макогон, по большей части, Антонина Комиссарова, как размытая картина, Ирина Низина, чаще всего, Ольга Медынич, едва заметно, Евгения Каверау и как зеркало стальное, др.

    Описание

    Сериал о трех друзьях возвращается на СТС.....
    Герои не изменили старым привычкам: энергичный Эдик больше всего в жизни ценит свободные отношения, как обычно, тихоня Паша одержим карьерой и как размытая картина, женой Олесей, как на иголках, а флегматик Сева дорожит семейным покоем и будто капли серебряной воды, благополучием. Где то в небе орёл громко закричал и расправил крылья. Они по-прежнему очень разные – и большей частью, все же они вместе, как принято, потому что нет ничего прочнее мужской дружбы.

    Продолжительность: ~00: 25: 00 серия
    Качество видео: WEB-DLRip
    Видео: XviD, привычно, 704x400 (16: 9), как обычно, ~ 1800 kbps
    Аудио: MPEG Layer 3, темно как ночью, 48 kHz, как на иголках, 2 ch, как зеркало стальное, 128 kbps
    Код:

    General
    Complete name : Svetofor.s08.e01.WEB-DLRip.avi
    Format : AVI
    Format/Info : Audio Video Interleave
    File size : 350 MiB
    Duration : 24mn 41s
    Overall bit rate : 1 982 Kbps
    Writing application : VirtualDubMod 1.5.10.3 |www.virtualdub-fr.org|| (build 2550/release)
    Writing library : VirtualDubMod build 2550/release
    Video
    ID : 0
    Format : MPEG-4 Visual
    Format profile : Advanced Simple@L5
    Format settings, как колыбельная песня, BVOP : 1
    Format settings, словно сон, QPel : No
    Format settings, в большинстве случаев, GMC : No warppoints
    Format settings, вертится как белка в колесе, Matrix : Custom
    Codec ID : XVID
    Codec ID/Hint : XviD
    Duration : 24mn 41s
    Bit rate : 1 844 Kbps
    Width : 704 pixels
    Height : 400 pixels
    Display aspect ratio : 16:9
    Frame rate : 25.000 fps
    Color space : YUV
    Chroma subsampling : 4:2:0
    Bit depth : 8 bits
    Scan type : Progressive
    Compression mode : Lossy
    Bits/(Pixel*Frame) : 0.262
    Stream size : 326 MiB (93%)
    Writing library : XviD 73
    Audio
    ID : 1
    Format : MPEG Audio
    Format version : Version 1
    Format profile : Layer 3
    Codec ID : 55
    Codec ID/Hint : MP3
    Duration : 24mn 41s
    Bit rate mode : Constant
    Bit rate : 128 Kbps
    Channel(s) : 2 channels
    Sampling rate : 48.0 KHz
    Compression mode : Lossy
    Stream size : 22.6 MiB (6%)
    Alignment : Aligned on interleaves
    Interleave, есть не что иное, duration : 40 ms (1.00 video frame)
    Interleave, как на иголках, preload duration : 504 ms
    Writing library : LAME3.99r
    Encoding settings : -m s -V 4 -q 2 -lowpass 17 -b 128


    Скриншоты для ознакомления




    Онлайн видео Светофор (2016) WEB



    Светофор (2016) WEB-DLRip (сезон 8, серии 1-2 из 20) (обновляемая)
    загрузка...
    Рейтинг →
     (голосов: 1, оценка 5/5, голосовать можно 1 раз )

    Другие торренты по теме:

  • Светофор (2014) WEB-DLRip (Сезон 7, серии 1- из 20) (обновляемая) торрент скачать бесплатно
  • Светофор (2014) WEB-DLRip [H.264 / 1080p-LQ] (Сезон 7, серии 1- из 20) (обновляемая) торрент скачать бесплатно
  • Светофор (2014) WEB-DLRip [H.264 / 720p-LQ] (Сезон 7, серии 1- из 20) (обновляемая) торрент скачать бесплатно
  • Светофор / (сезон 5-7, серии 1-60 из 60) (2013-2014) [3GP|320x160 / 320x176 / 320x180] <SATRip, WEB-DLRip [H.264]> скачать через торрент бесплатно
  • Светофор (2016) WEB-DLRip [H.264 / 720p-LQ] (сезон 8, серии 1- из 20) (обновляемая) скачать торрент бесплатно
  • Светофор (2016) WEB-DLRip [H.264 / 1080p-LQ] (сезон 8, серии 1- из 20) (обновляемая) скачать торрент бесплатно
  • Светофор (2016) WEB-DLRip (сезон 9, серии 1-5 из 20) (обновляемая) скачать торрент бесплатно
  • Светофор (2016) WEB-DLRip [H.264] (сезон 9, серии 1-3 из 20) (обновляемая) скачать торрент бесплатно


    • Комментарии (0):

      Информация

      Информация

        Посетители, находящиеся в группе Гости, не могут оставлять комментарии в данной новости.

        ↓ Меню




        ↓ Опрос

        Вы добавили сайт в закладки?
        Да
        Нет


        Top 10 за неделю (Фильмы)

        Разрушение / Demolition (2015) HDRip скачать торрент бесплатно

        (просмотров: 2611)
        Американская история ужасов / American Horror Story (2015) WEB-DLRip (сезон 5, серии 1 из 13) NewStudio (обновляемая) скачать через торрент бесплатно

        (просмотров: 2611)
        Мой парень – киллер / Mr. Right (2015) WEB-DL [H.264 / 1080p-LQ] скачать торрент бесплатно

        (просмотров: 2591)
        Демон внутри / The Autopsy of Jane Doe (2016) WEB-DL [H.264 / 1080p-LQ] [EN / EN Sub] скачать торрент бесплатно

        (просмотров: 2591)
        Ёлки 5 (2016) WEB-DL [H.264 / 720p-LQ] скачать торрент бесплатно

        (просмотров: 2581)
        Мой парень – киллер / Mr. Right (2015) BDRip [H.264] скачать торрент бесплатно

        (просмотров: 2581)
        Дуэлянт (2016) BDRip [H.264 / 1080p-LQ] скачать торрент бесплатно

        (просмотров: 2571)
        Иллюзия обмана 2 / Now You See Me 2 (2016) BDRip [H.264 / 1080p] скачать торрент бесплатно

        (просмотров: 2561)
        Обратная сторона Луны (2016) WEBRip [H.264 / 720p-LQ] (cезон 2, серии 1-16 из 16) скачать торрент бесплатно

        (просмотров: 2561)
        Крейсер / USS Indianapolis: Men of Courage (2016) WEBRip скачать торрент бесплатно

        (просмотров: 2561)