.
Авторизация | Регистрация
Хочешь лучшие торренты? Добавь свой email!
Добавить

Торрент скачать бесплатно

» » Хозяйка (2016) SATRip [H.264] (серии 1-16 из 24) (обновляемая) торрент скачать бесплатно




    Хозяйка (2016) SATRip [H.264] (серии 1-16 из 24) (обновляемая) торрент скачать бесплатно

    Опубликовал: Админ | Дата: 27-02-2016, 04:01 | Просмотров: 38

    Производство: Украина/Канал 1+1
    Жанр: мелодрама
    Режиссер: Бата Недич

    Актеры
    Екатерина Варченко, Елена Стефанская, Сергей Радченко , Александр Попов , Владимир Горянский, Анна Кошмал, Константин Войтенко, Александра Перепелица, Марк Дробот, Нина Набока, Алексей Кужельный, Анастасия Зиновенко, Константин Корецкий, Юрий Яковлев-Суханов и др.

    Описание

    Красивая и независимая Наташа живет с маленьким сыном в небольшом шахтерском городке. Здесь все находится в руках преступного клана алчной и безжалостной Хозяйки. Ее сыновья влюблены в Наташу, но Хозяйка против этих отношений. О таком странном сюжете не догадывалась даже Волочкова. Она пытается выяснить, от кого молодая женщина родила сына. Открывшаяся тайна ее шокирует. Теперь Хозяйка сделает все, чтобы превратить жизнь одинокой матери в ад. Хватит ли Наташе сил защитить в неравной борьбе свое право на счастье?

    Дата премьеры в Украине: 1 февраля 2016 (1+1)
    Продолжительность: ~00: 50: 00 серия
    Качество видео: SATRip
    Видео: AVC/H.264, 720х400 (16: 9), ~1700 Кбит/сек
    Аудио: AC3, 2 канала, 192 Кбит/сек, CBR
    Код:

    Общее
    Уникальный идентификатор : 175224435339471749693545470981474606045 (0x83D2FFAADC1AA1B8B5186ACD60E7DBDD)
    Полное имя : F:ХозяйкаХозяйка_01 серия rip by_Aleksan55.mkv
    Формат : Matroska
    Версия формата : Version 2
    Размер файла : 680 Мбайт
    Продолжительность : 50 м.
    Общий поток : 1894 Кбит/сек
    Дата кодирования : UTC 2016-02-05 14:38:10
    Программа кодирования : mkvmerge v7.8.0 (\'River Man\') 32bit built on Apr 3 2015 12:11:22
    Библиотека кодирования : libebml v1.3.1 + libmatroska v1.4.2
    Видео
    Идентификатор : 1
    Формат : AVC
    Формат/Информация : Advanced Video Codec
    Профиль формата :High@L4.1
    Параметр CABAC формата : Да
    Параметр ReFrames формата : 9 кадров
    Идентификатор кодека : V_MPEG4/ISO/AVC
    Продолжительность : 50 м.
    Битрейт : 1700 Кбит/сек
    Ширина : 720 пикселей
    Высота : 400 пикселей
    Соотношение сторон : 16:9
    Режим частоты кадров : Постоянный
    Частота кадров : 25, 000 кадров/сек
    Цветовое пространство : YUV
    Субдискретизация насыщенности : 4:2:0
    Битовая глубина : 8 бит
    Тип развёртки : Прогрессивная
    Бит/(Пиксели*Кадры) : 0.236
    Размер потока : 598 Мбайт (88%)
    Библиотека кодирования : x264 core 146 r2538 121396c
    Настройки программы : cabac=1/ref=9/deblock=1:-3:-3/analyse=0x3:0x113/me=umh/subme=9/psy=1/psy_rd=1.00:0.15/mixed_ref=0/me_range=32/chroma_me=1/trellis=2/8x8dct=1/cqm=0/deadzone=21, 11/fast_pskip=1/chroma_qp_offset=-3/threads=2/lookahead_threads=4/sliced_threads=0/nr=0/decimate=1/interlaced=0/bluray_compat=0/constrained_intra=0/bframes=9/b_pyramid=2/b_adapt=1/b_bias=0/direct=3/weightb=1/open_gop=0/weightp=2/keyint=250/keyint_min=25/scenecut=40/intra_refresh=0/rc_lookahead=40/rc=2pass/mbtree=1/bitrate=1700/ratetol=1.0/qcomp=0.60/qpmin=0/qpmax=69/qpstep=4/cplxblur=20.0/qblur=0.5/ip_ratio=1.40/aq=1:1.00
    Default : Да
    Forced : Нет
    Цветовой диапазон : Limited
    Основные цвета : BT.601 PAL
    Характеристики трансфера : BT.470 System B, BT.470 System G
    Коэффициенты матрицы : BT.601
    Аудио
    Идентификатор : 2
    Формат : AC-3
    Формат/Информация : Audio Coding 3
    Расширение режима : CM (complete main)
    Параметр Endianness формата : Big
    Идентификатор кодека : A_AC3
    Продолжительность : 50 м.
    Вид битрейта : Постоянный
    Битрейт : 192 Кбит/сек
    Каналы : 2 канала
    Расположение каналов : Front: L R
    Частота : 48, 0 КГц
    Метод сжатия : С потерями
    Размер потока : 69, 0 Мбайт (10%)
    Default : Да
    Forced : Нет


    Скриншоты для ознакомления




    Онлайн видео Хозяйка (2016) SATRip [H.264] (серии 1



    Хозяйка (2016) SATRip [H.264] (серии 1-16 из 24) (обновляемая)
    загрузка...
    Рейтинг →
     (голосов: 1, оценка 5/5, голосовать можно 1 раз )

    Другие торренты по теме:

  • Уральские пельмени. Хозяйка медной сковороды (2016.03.08) SATRip
  • Хозяйка гостиницы / La Locandiera (1980) SATRip [H.264]


    • Комментарии (0):

      Информация

      Информация

        Посетители, находящиеся в группе Гости, не могут оставлять комментарии в данной новости.

        ↓ Меню




        ↓ Опрос

        Вы добавили сайт в закладки?
        Да
        Нет


        Top 10 за месяц (Фильмы)