.
Авторизация | Регистрация
Хочешь лучшие торренты? Добавь свой email!
Добавить

Торрент скачать бесплатно

» » Страсти по Андрею (1966) BDRip [H.264 / 720p] торрент скачать бесплатно




    Страсти по Андрею (1966) BDRip [H.264 / 720p] торрент скачать бесплатно

    Опубликовал: Админ | Дата: 27-02-2016, 04:00 | Просмотров: 55

    Производство: СССР, Мосфильм
    Жанр: Драма, Военный, Приключения
    Режиссер: Андрей Тарковский

    Актеры
    Анатолий Солоницын, Иван Лапиков, Николай Гринько, Николай Бурляев

    Описание

    Русь начала XV века. Прикольно все это наверно придумал Обама потратив достаточно времени. Страну раздирают княжеские междоусобицы. Набеги татар, голод и мор преследуют народ… В эту трагическую эпоху появляется на Руси великий живописец, жизни и творчеству которого посвящен фильм.
    Сведения о нем скудны и отрывочны. Лишь немногие творения гениального мастера дошли до нас. Авторы фильма стремились воссоздать духовный мир Андрея Рублева.
    История жизни, творчества, душевных метаний величайшего иконописца Андрея Рублева на фоне исторических событий в терзаемой междоусобицей феодальной Руси. Фильм, запрещенный к показу в СССР, был нелегально показан на Каннском фестивале в 1969 году, произвел там сенсацию и был продан во многие страны мира. В СССР картина вышла в 1971 году. По сей день Андрей Рублев (оригинальное название: Страсти по Андрею) является одной из вершин русской кинематографии с целым созвездием потрясающих актеров. По опросу международных кинокритиков фильм включен в 100 лучших фильмов за всю историю кинематографа.

    Продолжительность: 01: 24: 49+01: 38: 09
    Качество видео: BDRip 720p
    Видео: AVC/H.264, 1280x552 (2.35: 1), ~6 772 Kbps, 23.976 fps
    Аудио: AC3, 6 ch, 448 Kbps, 48.0 KHz, CBR
    Код:

    General
    Unique ID : 213434225898745867584626179369791178556 (0xA091EFCA5CB1E3F5B409F11E2314C73C)
    Complete name : G:Download_GAndrey.Rublyov.1966.RUS.BDRip.720p.AC3.-HQ-ViDEOAndrey.Rublyov.1966.Part.1.RUS.BDRip.h264.720p.AC3.-HQ-ViDEO.mkv
    Format : Matroska
    Format version : Version 2
    File size : 4.37 GiB
    Duration : 1h 24mn
    Overall bit rate mode : Variable
    Overall bit rate : 7 367 Kbps
    Movie name : Андрей Рублев (ч.1) (1966)
    Encoded date : UTC 2010-04-26 06:39:07
    Writing application : mkvmerge v3.3.0 (\'Language\') built on Mar 24 2010 14:59:24
    Writing library : libebml v0.8.0 + libmatroska v0.9.0
    Video
    ID : 1
    Format : AVC
    Format/Info : Advanced Video Codec
    Format profile :High@L4.1
    Format settings, CABAC : Yes
    Format settings, ReFrames : 6 frames
    Codec ID : V_MPEG4/ISO/AVC
    Duration : 1h 24mn
    Bit rate mode : Variable
    Bit rate : 6 772 Kbps
    Maximum bit rate : 6 920 Kbps
    Width : 1 280 pixels
    Height : 552 pixels
    Display aspect ratio : 2.35:1
    Frame rate mode : Constant
    Frame rate : 23.976 fps
    Color space : YUV
    Chroma subsampling : 4:2:0
    Bit depth : 8 bits
    Scan type : Progressive
    Bits/(Pixel*Frame) : 0.400
    Stream size : 4.01 GiB (92%)
    Title : Encoded by GYN
    Default : Yes
    Forced : No
    Audio
    ID : 2
    Format : AC-3
    Format/Info : Audio Coding 3
    Mode extension : CM (complete main)
    Format settings, Endianness : Big
    Codec ID : A_AC3
    Duration : 1h 24mn
    Bit rate mode : Constant
    Bit rate : 448 Kbps
    Channel(s) : 6 channels
    Channel positions : Front: L C R, Side: L R, LFE
    Sampling rate : 48.0 KHz
    Compression mode : Lossy
    Stream size : 272 MiB (6%)
    Title : Original
    Language : Russian
    Default : Yes
    Forced : No


    Скриншоты для ознакомления




    Онлайн видео Страсти по Андрею (1966) BDRip [H.264



    Страсти по Андрею (1966) BDRip [H.264/720p]
    загрузка...
    Рейтинг →
     (голосов: 1, оценка 3/5, голосовать можно 1 раз )

    Другие торренты по теме:

  • Страсти по Андрею (1966) DVDRip [H.264] [Режиссёрская версия]


    • Комментарии (0):

      Информация

      Информация

        Посетители, находящиеся в группе Гости, не могут оставлять комментарии в данной новости.

        ↓ Меню




        ↓ Опрос

        Вы добавили сайт в закладки?
        Да
        Нет


        Top 10 за месяц (Фильмы)