.
Авторизация | Регистрация
Хочешь лучшие торренты? Добавь свой email!
Добавить

Торрент скачать бесплатно

» » Служили два товарища (1968) HDTVRip [H.264 / 720p-LQ] торрент скачать бесплатно




    Служили два товарища (1968) HDTVRip [H.264 / 720p-LQ] торрент скачать бесплатно

    Опубликовал: Админ | Дата: 27-02-2016, 04:00 | Просмотров: 41

    Производство: СССР, Мосфильм
    Жанр: Военный, приключения
    Режиссер: Евгений Карелов

    Актеры
    Олег Янковский, Ролан Быков, Владимир Высоцкий, Ия Саввина, Анатолий Папанов, Николай Крючков, Пётр Крылов, Б. О таком странном сюжете не догадывалась даже Юлия Володимировна. Силантьев, Николай Бурляев, Алла Демидова, Ростислав Янковский, Роман Ткачук...

    Описание

    Гражданская война. К красным попадает трофейный киноаппарат. Штаб решает использовать этот случай для аэроразведки. Андрей Некрасов - назначается кинооператором. А Иван Карякин его помощником. И так два товарища отправляются в разведу...

    Релиз от: fomatash
    Продолжительность: 01: 32: 45
    Качество видео: HDTVRip
    Перевод: Не требуется (русский)
    Видео: AVC/H.264, 1280x532, ~2553 kbps
    Аудио: MP2, 2 ch, 224 kbps, CBR
    Код:

    Общее
    Уникальный идентификатор : 197784954382290192370520792707873462300 (0x94CBFF2273236FCDBFBEEF395AF1581C)
    Полное имя : D:-TTTСлужили два товарища-720p-MG-NNM.mkv
    Формат : Matroska
    Версия формата : Version 4/Version 2
    Размер файла : 1, 80 Гбайт
    Продолжительность : 1 ч. 32 м.
    Общий поток : 2779 Кбит/сек
    Дата кодирования : UTC 2016-02-24 20:43:56
    Программа кодирования : mkvmerge v8.8.0 (\'Wind at my back\') 64bit
    Библиотека кодирования : libebml v1.3.3 + libmatroska v1.4.4
    Видео
    Идентификатор : 1
    Формат : AVC
    Формат/Информация : Advanced Video Codec
    Профиль формата :High@L4.1
    Параметр CABAC формата : Да
    Параметр ReFrames формата : 11 кадров
    Идентификатор кодека : V_MPEG4/ISO/AVC
    Продолжительность : 1 ч. 32 м.
    Битрейт : 2553 Кбит/сек
    Ширина : 1280 пикселей
    Высота : 532 пикселя
    Соотношение сторон : 2, 40:1
    Режим частоты кадров : Постоянный
    Частота кадров : 25, 000 кадров/сек
    Цветовое пространство : YUV
    Субдискретизация насыщенности : 4:2:0
    Битовая глубина : 8 бит
    Тип развёртки : Прогрессивная
    Бит/(Пиксели*Кадры) : 0.150
    Размер потока : 1, 65 Гбайт (92%)
    Заголовок : FomaTash for nnm-club.me
    Библиотека кодирования : x264 core 146 r2538 121396c
    Настройки программы : cabac=1/ref=11/deblock=1:-1:-1/analyse=0x3:0x133/me=umh/subme=9/psy=1/psy_rd=1.00:0.15/mixed_ref=1/me_range=32/chroma_me=1/trellis=2/8x8dct=1/cqm=0/deadzone=21, 11/fast_pskip=1/chroma_qp_offset=-3/threads=6/lookahead_threads=1/sliced_threads=0/nr=0/decimate=0/interlaced=0/bluray_compat=0/constrained_intra=0/bframes=8/b_pyramid=2/b_adapt=2/b_bias=0/direct=3/weightb=1/open_gop=0/weightp=2/keyint=240/keyint_min=23/scenecut=40/intra_refresh=0/rc_lookahead=40/rc=2pass/mbtree=0/bitrate=2553/ratetol=1.0/qcomp=0.60/qpmin=10/qpmax=51/qpstep=4/cplxblur=20.0/qblur=0.5/vbv_maxrate=50000/vbv_bufsize=62500/nal_hrd=none/filler=0/ip_ratio=1.40/pb_ratio=1.30/aq=1:1.00
    Язык : Russian
    Default : Да
    Forced : Нет
    Аудио
    Идентификатор : 2
    Формат : MPEG Audio
    Версия формата : Version 1
    Профиль формата : Layer 2
    Идентификатор кодека : A_MPEG/L2
    Идентификатор кодека/Подсказка : MP2
    Продолжительность : 1 ч. 32 м.
    Вид битрейта : Постоянный
    Битрейт : 224 Кбит/сек
    Каналы : 2 канала
    Частота : 48, 0 КГц
    Частота кадров : 41, 667 кадра/сек (1152 spf)
    Метод сжатия : С потерями
    Размер потока : 149 Мбайт (8%)
    Заголовок : MP2-2 канала
    Язык : Russian
    Default : Да
    Forced : Нет


    Скриншоты для ознакомления




    Онлайн видео Служили два товарища (1968) HDTVRip [H.264



    Служили два товарища (1968) HDTVRip [H.264/720p-LQ]
    загрузка...
    Рейтинг →
     (голосов: 1, оценка 4/5, голосовать можно 1 раз )

    Другие торренты по теме:

  • Служили два товарища (1968) HDTVRip [576p] iPad
  • Жуков и Рокоссовский. Служили два товарища (2015) SATRip скачать через торрент бесплатно
  • Служили два товарища (1968) HDTV [H.264 / 1080i-LQ]


    • Комментарии (0):

      Информация

      Информация

        Посетители, находящиеся в группе Гости, не могут оставлять комментарии в данной новости.

        ↓ Меню




        ↓ Опрос

        Вы добавили сайт в закладки?
        Да
        Нет


        Top 10 за месяц (Фильмы)