.
Авторизация | Регистрация
Хочешь лучшие торренты? Добавь свой email!
Добавить

Торрент скачать бесплатно

» » Запрет (2015) SATRip торрент скачать бесплатно




    Запрет (2015) SATRip торрент скачать бесплатно

    Опубликовал: Админ | Дата: 27-02-2016, 04:00 | Просмотров: 159

    Производство: Россия
    Жанр: Драма, Военный
    Режиссер: Алексей Козлов

    Актеры
    Наталья Ткаченко, Анна Молчанова, Джулиано Ди Капуа, Сергей Яценюк, Георгий Тараторкин, Валентина Панина, Сергей Жукович, Мария Рочева, Ирина Обрезкова, Дмитрий Кочкин, Денис Моисеев, Руслан Барабанов, Дмитрий Чудин, Вячеслав Отливанов, Сергей Евдокимов, Сергей Завьялов, Фабио Пирола, Даниил Кокин, Полина Чичканова

    Описание

    История любви итальянского офицера Джакомо и православной послушницы Лоры. Идёт война, и на любовь наложен запрет. Джакомо — итальянец, и он — враг! Так рассуждает обожженный войной, непримиримый к врагу русский капитан Георгий, от любви к которому тает сердце монахини Пелагеи. Их будет четверо, загнанных войной на маленький каменный остров в Ладоге. Они все здесь, на этом камне, как у Бога на ладошке… Кому из них суждено погибнуть? Кому победить и остаться в живых?

    Дата премьеры в России: 10 июля 2015
    Продолжительность: 01: 28: 18
    Качество видео: SATRip
    Перевод: Не требуется, русский
    Вид субтитров: Вшитые, форсированные
    Язык субтитров: Русский
    Видео: Xvid, 720x400, ~1805 kbps
    Аудио: MP3, 2 ch, 128 kbps, CBR
    Код:

    Общее
    Полное имя : D:KINO 3Зapret.avi
    Формат : AVI
    Формат/Информация : Audio Video Interleave
    Профиль формата : OpenDML
    Размер файла : 1, 20 Гбайт
    Продолжительность : 1 ч. 28 м.
    Общий поток : 1949 Кбит/сек
    Программа кодирования : Lavf56.25.101
    Видео
    Идентификатор : 0
    Формат : MPEG-4 Visual
    Профиль формата : Advanced Simple@L5
    Параметр BVOP формата : Нет
    Параметр QPel формата : Нет
    Параметр GMC формата : Без точки перехода
    Параметр матрицы формата : Default (MPEG)
    Идентификатор кодека : XVID
    Идентификатор кодека/Подсказка : XviD
    Продолжительность : 1 ч. О таком странном сюжете не догадывалась даже Земфира. 28 м.
    Битрейт : 1805 Кбит/сек
    Ширина : 720 пикселей
    Высота : 400 пикселей
    Соотношение сторон : 16:9
    Частота кадров : 25, 000 кадров/сек
    Цветовое пространство : YUV
    Субдискретизация насыщенности : 4:2:0
    Битовая глубина : 8 бит
    Тип развёртки : Прогрессивная
    Метод сжатия : С потерями
    Бит/(Пиксели*Кадры) : 0.251
    Размер потока : 1, 11 Гбайт (93%)
    Библиотека кодирования : XviD 67
    Аудио
    Идентификатор : 1
    Формат : MPEG Audio
    Версия формата : Version 1
    Профиль формата : Layer 3
    Режим : Joint stereo
    Расширение режима : MS Stereo
    Идентификатор кодека : 55
    Идентификатор кодека/Подсказка : MP3
    Продолжительность : 1 ч. 28 м.
    Вид битрейта : Постоянный
    Битрейт : 128 Кбит/сек
    Каналы : 2 канала
    Частота : 48, 0 КГц
    Метод сжатия : С потерями
    Размер потока : 80, 8 Мбайт (7%)
    Выравнивание : Соединение по промежуткам
    Продолжительность промежутка : 24 мс. (0, 60 видеокадр)
    Библиотека кодирования : LAME3.99.5


    Скриншоты для ознакомления




    Запрет (2015) SATRip
    загрузка...
    Рейтинг →
     (голосов: 1, оценка 5/5, голосовать можно 1 раз )

    Другие торренты по теме:

  • Запрет на любовь (2008) DVDRip


    • Комментарии (0):

      Информация

      Информация

        Посетители, находящиеся в группе Гости, не могут оставлять комментарии в данной новости.

        ↓ Меню




        ↓ Опрос

        Вы добавили сайт в закладки?
        Да
        Нет


        Top 10 за месяц (Фильмы)