.
Авторизация | Регистрация
Хочешь лучшие торренты? Добавь свой email!
Добавить

Торрент скачать бесплатно

» » Ликвидация (2007) HDTVRip [H.264 / 720p-LQ] (серии 1-14 из 14) торрент скачать бесплатно




    Ликвидация (2007) HDTVRip [H.264 / 720p-LQ] (серии 1-14 из 14) торрент скачать бесплатно

    Опубликовал: Админ | Дата: 26-02-2016, 04:01 | Просмотров: 80

    Производство: Россия, студия Дед Мороз
    Жанр: Боевик, Триллер, Криминал
    Режиссер: Сергей Урсуляк

    Актеры
    Владимир Машков, Михаил Пореченков, Владимир Меньшов, Сергей Маковецкий, Константин Лавроненко, Сергей Угрюмов, Светлана Крючкова, Юрий Лахин, Александр Сирин, Константин Желдин, Полина Агуреева, Лика Нифонтова, Ксения Раппопорт, Виктор Смирнов, Федор Добронравов, Борис Каморзин, Александр Семчев, Максим Дрозд, Коля Спиридонов, Олег Басилашвили, Сергей Рубеко

    Описание

    Послевоенная Одесса, разгул преступности. В городе орудует банда бывших диверсантов во главе с загадочным Академиком, которого не знают даже свои. Самое интересное в это истории, что об этом Потап ничего не знал. Бандиты грабят военные склады и пытаются переправить продовольствие, обмундирование и оружие бандеровцам. В это время недовольный Жуковым Сталин назначает его командующим Одесским округом. Маршал всеми силами пытается навести в городе порядок.

    Продолжительность: ~00: 45: 00 серия
    Качество видео: HDTVRip
    Видео: AVC/H.264, 1280x720 (16: 9), ~4700 kbps, 25 fps
    Аудио: AC3, 2 ch, 192 kbps, 48 kHz, CBR
    Код:

    General
    Unique ID : 227225153873138042678240134057407444993 (0xAAF1F9092C6E4B868CF08AB131567801)
    Complete name : G:Download_GLikvidatsiya.2007.HDTVRip.(720p).MediaClubLikvidatsiya.(01.seriya.iz.14).2007.HDTVRip.(720p).MediaClub.mkv
    Format : Matroska
    Format version : Version 2
    File size : 1.55 GiB
    Duration : 45mn 35s
    Overall bit rate : 4 878 Kbps
    Encoded date : UTC 2015-02-20 22:53:45
    Writing application : mkvmerge v6.1.0 (\'Old Devil\') built on Mar 4 2013 09:10:42
    Writing library : libebml v1.3.0 + libmatroska v1.4.0
    Video
    ID : 1
    Format : AVC
    Format/Info : Advanced Video Codec
    Format profile :High@L4.1
    Format settings, CABAC : Yes
    Format settings, ReFrames : 8 frames
    Codec ID : V_MPEG4/ISO/AVC
    Duration : 45mn 35s
    Bit rate : 4 692 Kbps
    Width : 1 280 pixels
    Height : 720 pixels
    Display aspect ratio : 16:9
    Frame rate mode : Constant
    Frame rate : 25.000 fps
    Color space : YUV
    Chroma subsampling : 4:2:0
    Bit depth : 8 bits
    Scan type : Progressive
    Bits/(Pixel*Frame) : 0.204
    Stream size : 1.46 GiB (94%)
    Writing library : x264 core 130 r2273 b3065e6
    Encoding settings : cabac=1/ref=8/deblock=1:-3:-3/analyse=0x3:0x133/me=umh/subme=11/psy=1/psy_rd=1.00:0.20/mixed_ref=1/me_range=32/chroma_me=1/trellis=2/8x8dct=1/cqm=0/deadzone=21, 11/fast_pskip=0/chroma_qp_offset=-3/threads=12/lookahead_threads=3/sliced_threads=0/nr=0/decimate=0/interlaced=0/bluray_compat=0/constrained_intra=0/bframes=11/b_pyramid=2/b_adapt=2/b_bias=0/direct=3/weightb=1/open_gop=0/weightp=2/keyint=250/keyint_min=25/scenecut=40/intra_refresh=0/rc=2pass/mbtree=0/bitrate=4692/ratetol=1.0/qcomp=0.60/qpmin=0/qpmax=69/qpstep=4/cplxblur=20.0/qblur=0.5/ip_ratio=1.40/pb_ratio=1.30/aq=1:0.80
    Default : Yes
    Forced : No
    Audio
    ID : 2
    Format : AC-3
    Format/Info : Audio Coding 3
    Mode extension : CM (complete main)
    Format settings, Endianness : Big
    Codec ID : A_AC3
    Duration : 45mn 35s
    Bit rate mode : Constant
    Bit rate : 192 Kbps
    Channel(s) : 2 channels
    Channel positions : Front: L R
    Sampling rate : 48.0 KHz
    Compression mode : Lossy
    Stream size : 62.6 MiB (4%)
    Default : Yes
    Forced : No


    Скриншоты для ознакомления




    Онлайн видео Ликвидация (2007) HDTVRip [H.264



    Ликвидация (2007) HDTVRip [H.264/720p-LQ] (серии 1-14 из 14)
    загрузка...
    Рейтинг →
     (голосов: 1, оценка 5/5, голосовать можно 1 раз )

    Другие торренты по теме:

  • Ликвидация (2007) HDTVRip [H.264] (серии 1-14 из 14) скачать через торрент бесплатно
  • Ликвидация (2007) HDTVRip [H.264 / 1080p-LQ] (серии 1-14 из 14)


    • Комментарии (0):

      Информация

      Информация

        Посетители, находящиеся в группе Гости, не могут оставлять комментарии в данной новости.

        ↓ Меню




        ↓ Опрос

        Вы добавили сайт в закладки?
        Да
        Нет


        Top 10 за месяц (Фильмы)