.
Авторизация | Регистрация
Хочешь лучшие торренты? Добавь свой email!
Добавить

Торрент скачать бесплатно

» » Батальонъ (2014) DVD5 торрент скачать бесплатно




    Батальонъ (2014) DVD5 торрент скачать бесплатно

    Опубликовал: Админ | Дата: 26-02-2016, 04:01 | Просмотров: 78

    Производство: Россия/Корнер Ворк, Art Pictures Studio
    Жанр: Драма, военный, история
    Режиссер: Дмитрий Месхиев
    Продюсеры: Игорь Угольников, Фёдор Бондарчук, Дмитрий Рудовский

    Актеры
    Мария Аронова, Мария Кожевникова, Ирина Рахманова, Марат Башаров, Янина Малинчик, Евгений Дятлов, Яков Шамшин, Алёна Кучкова, Валерия Шкирандо, Николай Аузин, Владимир Зайцев

    Описание

    Весна 1917-го года. Февральская революция изменила жизнь России и ход Великой войны. Государь уже отрёкся от престола. В окопах, где противостояние с немцами длится уже не один год, вовсю ведут свою пропаганду большевики. Они призывают к миру с неприятелем. Российское офицерство фактически ничего не может решить без одобрения так называемых солдатских комитетов. Армия находится на пороге окончательного разложения.
    По приказу Временного правительства для поднятия боевого духа создаётся женский Батальон смерти под командованием георгиевского кавалера Марии Бочкарёвой. Своей службой Батальон смерти подаёт пример храбрости, мужества и спокойствия, поднимает дух солдат и доказывает, что каждая из этих женщин-героев достойна звания воина русской армии.

    Дата мировой премьеры: 20 февраля 2015
    Дата российской премьеры: 20 февраля 2015, WDSSPR
    Продолжительность: 02: 03: 56
    Качество видео: DVD5
    Перевод: Не требуется (лицензия)
    Субтитры: Отсутствуют
    Видео: MPEG-2, 720x576@1024x576 (PAL 16: 9), ~4400 Kbps
    Аудио: AC3 5.1, 448 Kbps
    Код:
    Title: Батальонъ (2014) DVD5
    Size: 4.37 Gb ( 4 584 986, 00 KBytes ) - DVD-5
    Enabled regions: 1, 2, 3, 4, 5, 6, 7, 8
    VTS_01 :
    Play Length: 00:00:00
    Video: PAL 16:9 (720x576) VBR, Auto PanScan, Auto Letterboxed
    Audio:
    Russian (Dolby AC3, 6 ch)
    VTS_02 :
    Play Length: 02:03:56
    Video: PAL 16:9 (720x576) VBR, Auto PanScan, Auto Letterboxed
    Audio:
    Russian (Dolby AC3, 6 ch)
    * Menus Information *
    VIDEO_TS Menu
    Video:
    PAL 4:3 (720x576) VBR
    Auto PanScan, Auto Letterboxed
    Audio:
    Not specified (Dolby AC3, 1 ch)
    English Language Unit :
    Title Menu
    VTS_01 Menu
    Video:
    PAL 16:9 (720x576) VBR
    Auto Letterboxed
    Audio:
    Not specified (Dolby AC3, 2 ch)
    English Language Unit :
    Root Menu
    Chapter (PTT) Menu
    VTS_02 Menu
    Video:
    PAL 4:3 (720x576) VBR
    Audio:
    Not specified (Dolby AC3, 1 ch)
    English Language Unit :
    Root Menu
    Audio Menu
    Chapter (PTT) Menu
    Код:
    Общее
    Полное имя : G:ВидеоБатальонъ (2014) DVD5VIDEO_TSVTS_02_2.VOB
    Формат : MPEG-PS
    Размер файла : 1024 Мбайт
    Продолжительность : 29 м.
    Режим общего битрейта : Переменный
    Общий поток : 4932 Кбит/сек
    Видео
    Идентификатор : 224 (0xE0)
    Формат : MPEG Video
    Версия формата : Version 2
    Профиль формата : Main@Main
    Параметр BVOP формата : Да
    Параметр матрицы формата : Выборочная
    Параметр GOP формата : Variable
    Продолжительность : 29 м.
    Вид битрейта : Переменный
    Битрейт : 4386 Кбит/сек
    Максимальный битрейт : 8742 Кбит/сек
    Ширина : 720 пикселей
    Высота : 576 пикселей
    Соотношение сторон : 16:9
    Частота кадров : 25, 000 кадров/сек
    Стандарт вещания : PAL
    Цветовое пространство : YUV
    Субдискретизация насыщенности : 4:2:0
    Битовая глубина : 8 бит
    Тип развёртки : Прогрессивная
    Порядок развёртки : Нижнее поле первое
    Метод сжатия : С потерями
    Бит/(Пиксели*Кадры) : 0.423
    Временной код первого кадра : 00:29:38:17
    Оригинал временного кода : Group of pictures t_head
    Размер потока : 910 Мбайт (89%)
    Аудио
    Идентификатор : 189 (0xBD)-128 (0x80)
    Формат : AC-3
    Формат/Информация : Audio Coding 3
    Расширение режима : CM (complete main)
    Параметр Endianness формата : Big
    Режим смешивания : DVD-Video
    Продолжительность : 29 м.
    Вид битрейта : Постоянный
    Битрейт : 448 Кбит/сек
    Каналы : 6 каналов
    Расположение каналов : Front: L C R, Side: L R, LFE
    Частота : 48, 0 КГц
    Битовая глубина : 16 бит
    Метод сжатия : С потерями
    Задержка видео : -712 мс.
    Размер потока : 93, 0 Мбайт (9%)
    Меню


    Скриншоты для ознакомления




    Онлайн видео 30 свиданий (2015) WEB-DL [H.264



    Батальонъ (2014) DVD5
    загрузка...
    Рейтинг →
     (голосов: 1, оценка 5/5, голосовать можно 1 раз )

    Другие торренты по теме:

  • БатальонЪ (2015) TS скачать через торрент бесплатно
  • Батальонъ (2015) WEB-DLRip [H.264] скачать через торрент бесплатно
  • Батальонъ (2015) WEB-DL [H.264 / 720p-LQ] скачать через торрент бесплатно
  • Батальонъ (2015) WEB-DL [H.264 / 1080p-LQ] скачать через торрент бесплатно
  • Батальонъ (2015) WEB-DLRip [H.264] iTunes [MP4|960х400] скачать через торрент бесплатно
  • Батальонъ (2015) WEB-DLRip скачать через торрент бесплатно
  • Батальонъ (2015) WEB-DLRip скачать через торрент бесплатно
  • Батальонъ (2014) WEB-DLRip скачать через торрент бесплатно


    • Комментарии (0):

      Информация

      Информация

        Посетители, находящиеся в группе Гости, не могут оставлять комментарии в данной новости.

        ↓ Меню




        ↓ Опрос

        Вы добавили сайт в закладки?
        Да
        Нет


        Top 10 за месяц (Фильмы)