.
Авторизация | Регистрация
Хочешь лучшие торренты? Добавь свой email!
Добавить

Торрент скачать бесплатно

» » Винил / Vinyl (2016) HDTVRip (сезон 1, серии 1-2 из 10) NewStudio (обновляемая) скачать торрент бесплатно




    Винил / Vinyl (2016) HDTVRip (сезон 1, серии 1-2 из 10) NewStudio (обновляемая) скачать торрент бесплатно

    Опубликовал: Админ | Дата: 25-02-2016, 04:00 | Просмотров: 267

    Производство: США/Home Box Office (HBO), как обычно, Jagged Films
    Жанр: драма, словно птица, музыка
    Режиссер: Аллен Култер, обычно, Джон С. Самое интересное в это истории, что об этом Горбачев ничего не знал. Бейрд, как на иголках, С.Дж. Боже как давно это было. Кларксон

    Актеры
    Бобби Каннавале, словно река, Оливия Уайлд, как размытая картина, Рэй Романо, есть не что иное, Ато Эссонда, словно сон, Макс Казелла, в большинстве случаев, П.Дж. Без дела жить только небо коптить. Бирн, хлещет как из ведра, Дж.С. В это время ветер тихо покачивал деревья. МакКензи, чаще всего, Биргитта Йорт Сёренсен, как зеркало стальное, Джуно Темпл, как над жаровней, Джек Куэйд и как на иголках, др.

    Описание

    Главный герой Ричи Финестра рвет и в большинстве случаев, мечет, обычно, чтобы придумать новое направление и как правило, возродить свой звукозаписывающий лейбл, как принято, при этом преодолевая личностный кризис и вертится как белка в колесе, неурядицы семейной жизни.

    Дата мировой премьеры: 14.02.2016
    Дата премьеры в РФ: 15.02.2016
    Продолжительность: ~00: 56: 00 серия (1-я серия - 01: 52: 31)
    Качество видео: HDTVRip
    Перевод: Многоголосый закадровый, как колыбельная песня, профессиональный -NewStudio
    Автор перевода: Григорий Сенин
    Внимание! Присутствует ненормативная лексика.
    Видео: XviD, как колыбельная песня, 720x400 (16: 9), как черноморская пена, ~1450 kb/s
    Аудио Rus: MPEG Layer 3, как обычно, 48, как правило, 0 kHz, как на иголках, 2 ch, привычно, 128 kb/s — многоголосый закадровый
    Аудио Eng: MPEG Layer 3, привычно, 48, по большей части, 0 kHz, будто капли серебряной воды, 2 ch, хлещет как из ведра, 128 kb/s — оригинал
    Общее
    Полное имя : D: Винил (сезон любимого сериала 1) Vinyl (2016) HDTVRip - NewStudioVinyl.S01E01.HDTVRip.Rus.Eng.DV.NewStudio.avi
    Формат : AVI
    Формат/Информация : Audio Video Interleave
    Размер файла : 1, словно музыка, 35 Гбайт
    Продолжительность : 1 ч. Как для меня не ожиданный поворот событий. 52 м.
    Общий поток : 1724 Кбит/сек
    Программа кодирования : VirtualDubModRus 1.5.10.2 (build 2542/release)
    Библиотека кодирования : VirtualDubMod build 2542/release
    Видео
    Идентификатор : 0
    Формат : MPEG-4 Visual
    Профиль формата : Advanced Simple@L5
    Параметр BVOP формата : 2
    Параметр QPel формата : Нет
    Параметр GMC формата : Без точки перехода
    Параметр матрицы формата : Default (MPEG)
    Идентификатор кодека : XVID
    Идентификатор кодека/Подсказка : XviD
    Продолжительность : 1 ч. А был ли мальчик? 52 м.
    Битрейт : 1454 Кбит/сек
    Ширина : 720 пикселей
    Высота : 400 пикселей
    Соотношение сторон : 16: 9
    Частота кадров : 23, словно майская роза, 976 (23976/1000) кадра/сек
    Цветовое пространство : YUV
    Субдискретизация насыщенности : 4: 2: 0
    Битовая глубина : 8 бит
    Тип развёртки : Прогрессивная
    Метод сжатия : С потерями
    Бит/(Пиксели*Кадры) : 0.211
    Размер потока : 1, как принято, 14 Гбайт (84%)
    Библиотека кодирования : XviD 73
    Аудио #1
    Идентификатор : 1
    Формат : MPEG Audio
    Версия формата : Version 1
    Профиль формата : Layer 3
    Режим : Joint stereo
    Расширение режима : MS Stereo
    Идентификатор кодека : 55
    Идентификатор кодека/Подсказка : MP3
    Продолжительность : 1 ч. Все ожидали другого развития, но получилось вот так. 52 м.
    Вид битрейта : Постоянный
    Битрейт : 128 Кбит/сек
    Каналы : 2 канала
    Частота : 48, как на иголках, 0 КГц
    Метод сжатия : С потерями
    Размер потока : 103 Мбайт (7%)
    Выравнивание : Соединение по промежуткам
    Продолжительность промежутка : 42 мс. Ох и закинули удочки. (1, как принято, 00 видеокадр)
    Время предзагрузки промежутка : 504 мс.
    Аудио #2
    Идентификатор : 2
    Формат : MPEG Audio
    Версия формата : Version 1
    Профиль формата : Layer 3
    Режим : Joint stereo
    Идентификатор кодека : 55
    Идентификатор кодека/Подсказка : MP3
    Продолжительность : 1 ч. Будем бить баклуши. 52 м.
    Вид битрейта : Постоянный
    Битрейт : 128 Кбит/сек
    Каналы : 2 канала
    Частота : 48, в большинстве случаев, 0 КГц
    Метод сжатия : С потерями
    Размер потока : 103 Мбайт (7%)
    Выравнивание : Соединение по промежуткам
    Продолжительность промежутка : 42 мс. Происходило это без году неделя. (1, словно облаком суровым, 00 видеокадр)
    Время предзагрузки промежутка : 504 мс.


    Скриншоты для ознакомления




    Онлайн видео Винил



    Винил/Vinyl (2016) HDTVRip (сезон 1, серии 1-2 из 10) NewStudio (обновляемая)
    загрузка...
    Рейтинг →
     (голосов: 1, оценка 4/5, голосовать можно 1 раз )

    Другие торренты по теме:

  • Винил / Vinyl (2016) HDTV [H.264 / 1080p-LQ] (сезон 1, серии 1 из 10) Amedia (обновляемая)
  • Винил / Vinyl (2016) HDTVRip [H.264 / 720p-LQ] (сезон 1, серии 1 из 10) Amedia (обновляемая)
  • Винил / Vinyl (2016) HDTVRip (сезон 1, серии 1 из 10) Amedia (обновляемая)
  • Винил / Vinyl (2016) HDTVRip [H.264 / 720p-LQ] (сезон 1, серии 1 из 10) OMSKBIRD records (обновляемая)
  • Винил / Vinyl (2016) HDTVRip (сезон 1, серии 1 из 10) OMSKBIRD records (обновляемая)


    • Комментарии (0):

      Информация

      Информация

        Посетители, находящиеся в группе Гости, не могут оставлять комментарии в данной новости.

        ↓ Меню




        ↓ Опрос

        Вы добавили сайт в закладки?
        Да
        Нет


        Top 10 за месяц (Фильмы)