.
Авторизация | Регистрация
Хочешь лучшие торренты? Добавь свой email!
Добавить

Торрент скачать бесплатно

» » Золотая клетка / Иллюзия любви (2013) SATRip (серия 1-3 из 8) (обновляемая) торрент скачать бесплатно




    Золотая клетка / Иллюзия любви (2013) SATRip (серия 1-3 из 8) (обновляемая) торрент скачать бесплатно

    Опубликовал: Админ | Дата: 25-02-2016, 04:00 | Просмотров: 142

    Производство: Россия/ООО Кинокомпания Маркес
    Жанр: драма, мелодрама
    Режиссер: Сергей Кешишев

    Актеры
    Ирина Антоненко, Дмитрий Исаев, Станислав Бондаренко, Алексей Суренский, Юлия Яблонская, Нина Курпякова, Евгений Кушпель, Юрий Пронин, Сергей Походаев, Евгения Каверау, Ольга Житник, Артём Крестников, Роман Синицын, Слава Степанян, Владимир Довжик, Алексей Эйбоженко (мл.), Василий Шмаков, Екатерина Куликова, Валерий Скорокосов, Татьяна Лебедькова, Анна Канарис, Василий Стоноженко, Анна Алексеева, Юрий Печенежский и др.

    Описание

    Красавица медсестра Алина вынуждена бежать из родного города после череды ужасных и трагических событий. В Москве Алина работает сиделкой у пострадавшего в аварии молодого миллионера и оказывается полностью в его власти. Но это ли настоящая любовь? Вскоре Алина снова остается одна. Спасаясь от преследователя, который не остановится, пока не найдет ее, Алина полностью меняет свою жизнь, но за внешним благополучием и фасадами красивых домов скрываются тайны, которые лучше никому не знать...

    Продолжительность: ~ 00: 45: 00 серия
    Качество видео: SATRip
    Видео: Xvid, 720x400 (16: 9), ~1724 Кбит/сек
    Аудио: MP3, 2 канала, 128 Кбит/с, CBR
    Код:

    Общее
    Полное имя : D:МОЯtorrentZolotaja.kletka.SATRip1.seria.avi
    Формат : AVI
    Формат/Информация : Audio Video Interleave
    Размер файла : 628 Мбайт
    Продолжительность : 45 м.
    Общий поток : 1938 Кбит/сек
    Программа кодирования : VirtualDubMod 1.5.10.3 |www.virtualdub-fr.org|| (build 2550/release)
    Библиотека кодирования : VirtualDubMod build 2550/release
    Видео
    Идентификатор : 0
    Формат : MPEG-4 Visual
    Профиль формата : Advanced Simple@L5
    Параметр BVOP формата : 2
    Параметр QPel формата : Нет
    Параметр GMC формата : Без точки перехода
    Параметр матрицы формата : Default (MPEG)
    Идентификатор кодека : XVID
    Идентификатор кодека/Подсказка : XviD
    Продолжительность : 45 м.
    Битрейт : 1724 Кбит/сек
    Ширина : 720 пикселей
    Высота : 400 пикселей
    Соотношение сторон : 16:9
    Частота кадров : 25, 000 кадров/сек
    Цветовое пространство : YUV
    Субдискретизация насыщенности : 4:2:0
    Битовая глубина : 8 бит
    Тип развёртки : Прогрессивная
    Метод сжатия : С потерями
    Бит/(Пиксели*Кадры) : 0.239
    Размер потока : 559 Мбайт (89%)
    Библиотека кодирования : XviD 1.2.1 (UTC 2008-12-04)
    Аудио
    Идентификатор : 1
    Формат : MPEG Audio
    Версия формата : Version 1
    Профиль формата : Layer 3
    Режим : Joint stereo
    Расширение режима : MS Stereo
    Идентификатор кодека : 55
    Идентификатор кодека/Подсказка : MP3
    Продолжительность : 45 м.
    Вид битрейта : Постоянный
    Битрейт : 128 Кбит/сек
    Каналы : 2 канала
    Частота : 48, 0 КГц
    Метод сжатия : С потерями
    Размер потока : 41, 5 Мбайт (7%)
    Выравнивание : Соединение по промежуткам
    Библиотека кодирования : LAME3.99r
    Настройки программы : -m j -V 4 -q 9 -lowpass 17 -b 128


    Скриншоты для ознакомления




    Онлайн видео Золотая клетка



    Золотая клетка/Иллюзия любви (2013) SATRip (серия 1-3 из 8) (обновляемая)
    загрузка...
    Рейтинг →
     (голосов: 1, оценка 3/5, голосовать можно 1 раз )

    Другие торренты по теме:

  • Золотая клетка / La jaula de oro (2013) WEB-DLRip скачать через торрент бесплатно
  • Золотая клетка / La jaula de oro (2013) HDRip скачать через торрент бесплатно
  • Золотая клетка / Иллюзия любви (2013) WEB-DL [H.264 / 1080p-LQ] (серии 1-4 из 4)
  • Следствие вели... с Леонидом Каневским. Золотая клетка (05.03.2016). HDTV [H.264 / 1080i]
  • Семён Малков | Голубая кровь. Золотая клетка (2013) [MP3]


    • Комментарии (0):

      Информация

      Информация

        Посетители, находящиеся в группе Гости, не могут оставлять комментарии в данной новости.

        ↓ Меню




        ↓ Опрос

        Вы добавили сайт в закладки?
        Да
        Нет


        Top 10 за месяц (Фильмы)