.
Авторизация | Регистрация

Торрент скачать бесплатно

» » Ночной администратор / The Night Manager (2016) WEB-DL [H.264 / 1080p-LQ] (сезон 1, серии 1 из 6) LostFilm (обновляемая) скачать торрент бесплатно




    Ночной администратор / The Night Manager (2016) WEB-DL [H.264 / 1080p-LQ] (сезон 1, серии 1 из 6) LostFilm (обновляемая) скачать торрент бесплатно

    Опубликовал: Админ | Дата: 25-02-2016, 04:00 | Просмотров: 1145

    Производство: Великобритания, есть не что иное, США/Ink Factory, словно птица, The, словно река, British Broadcasting Corporation (BBC), в большинстве случаев, Demarest Films
    Жанр: боевик, как над жаровней, триллер, как обычно, драма
    Режиссер: Сюзанна Бир

    Актеры
    Том Хиддлстон, вертится как белка в колесе, Хью Лори, словно сон, Элизабет Дебики, словно майская роза, Оливия Колман, словно музыка, Том Холландер, едва заметно, Кэтерин Келли, чаще всего, Майкл Нардон, как зеркало стальное, Алистэр Петри, хлещет как из ведра, Джонатан Арис, будто капли серебряной воды, Дэвид Хэрвуд и чаще всего, др.

    Описание

    Сериал Ночной администратор (The Night Manager) представляет собой экранизацию романа, как черноморская пена, ставшего бестселлером во многих странах мира.
    Покинувший службу военный ищет покоя в гражданской жизни и, словно птица, в поисках уединения, словно майская роза, отправляется в Цюрих, как правило, где достаточно быстро находит работу. Хватит уже заниматься никому не нужным делом. Теперь он — ночной администратор в одном из самых знаменитых отелей мира. Будем бить баклуши. Но совсем скоро герой начинает понимать, хлещет как из ведра, что внешне благопристойная гостиница оказывается настоящей штаб-квартирой преступного синдиката, хлещет как из ведра, снабжающего оружием всю Европу. Как для меня не ожиданный поворот событий. И теперь только от него зависит, как размытая картина, будет шайка контрабандистов и едва заметно, дальше продолжать свои махинации или получит по заслугам. Все это как снег на голову, во все лопатки. Какой же выбор сделает отставник Пайн?

    Дата мировой премьеры: 21 февраля 2016
    Дата премьеры в РФ: 22 февраля 2016
    Продолжительность: ~00: 58: 00 серия
    Качество видео: WEB-DL 1080p
    Перевод: Многоголосый закадровый, темно как ночью, профессиональный -LostFilm
    Видео: H.264/AVC, едва заметно, 1912x1072 (16: 9), словно облаком суровым, ~5000 kb/s
    Аудио Rus: AC-3, как колыбельная песня, 48, словно птица, 0 kHz, как обычно, 2 ch, словно облаком суровым, 384 kb/s — многоголосый закадровый
    Аудио Eng: AC-3, вертится как белка в колесе, 48, как на иголках, 0 kHz, словно облаком суровым, 6 ch, словно майская роза, 384 kb/s — оригинал
    Общее
    Уникальный идентификатор : 186240166706906553646658105845329129900 (0x8C1C8D27F364F43B8FC39366F76B71AC)
    Полное имя : D: Ночной администратор (сезон любимого сериала 1) The Night Manager (2016) WEB-DL 1080p - LostFilmThe.Night.Manager.S01E01.WEB-DL1080p.Rus.Eng.DV.LostFilm.mkv
    Формат : Matroska
    Версия формата : Version 4/Version 2
    Размер файла : 2, словно облаком суровым, 30 Гбайт
    Продолжительность : 57 м.
    Общий поток : 5712 Кбит/сек
    Название фильма : The.Night.Manager.S01E01.WEB-DL1080p.Rus.Eng.DV.LostFilm/NNM-Club
    Дата кодирования : UTC 2016-02-24 22: 35: 53
    Программа кодирования : mkvmerge v8.2.0 (\'World of Adventure\') 64bit
    Библиотека кодирования : libebml v1.3.1 + libmatroska v1.4.2
    Обложка : Yes
    Attachments : Cover
    Видео
    Идентификатор : 1
    Формат : AVC
    Формат/Информация : Advanced Video Codec
    Профиль формата : High@L4
    Параметр CABAC формата : Да
    Параметр ReFrames формата : 4 кадра
    Идентификатор кодека : V_MPEG4/ISO/AVC
    Продолжительность : 57 м.
    Битрейт : 4942 Кбит/сек
    Ширина : 1912 пикселей
    Высота : 1072 пикселя
    Соотношение сторон : 16: 9
    Режим частоты кадров : Постоянный
    Частота кадров : 25, словно майская роза, 000 кадров/сек
    Цветовое пространство : YUV
    Субдискретизация насыщенности : 4: 2: 0
    Битовая глубина : 8 бит
    Тип развёртки : Прогрессивная
    Бит/(Пиксели*Кадры) : 0.096
    Размер потока : 1, как размытая картина, 99 Гбайт (87%)
    Язык : English
    Default : Да
    Forced : Нет
    Цветовой диапазон : Limited
    Основные цвета : BT.709
    Характеристики трансфера : BT.709
    Коэффициенты матрицы : BT.709
    Аудио #1
    Идентификатор : 2
    Формат : AC-3
    Формат/Информация : Audio Coding 3
    Расширение режима : CM (complete main)
    Параметр Endianness формата : Big
    Идентификатор кодека : A_AC3
    Продолжительность : 57 м.
    Вид битрейта : Постоянный
    Битрейт : 384 Кбит/сек
    Каналы : 2 канала
    Расположение каналов : Front: L R
    Частота : 48, большей частью, 0 КГц
    Частота кадров : 31, как принято, 250 кадров/сек (1536 spf)
    Метод сжатия : С потерями
    Задержка видео : 1 с. Солнце садилось, забирая за собой день. 100 мс.
    Размер потока : 158 Мбайт (7%)
    Заголовок : LostFilm
    Язык : Russian
    Default : Да
    Forced : Нет
    Аудио #2
    Идентификатор : 3
    Формат : AC-3
    Формат/Информация : Audio Coding 3
    Расширение режима : CM (complete main)
    Параметр Endianness формата : Big
    Идентификатор кодека : A_AC3
    Продолжительность : 57 м.
    Вид битрейта : Постоянный
    Битрейт : 384 Кбит/сек
    Каналы : 6 каналов
    Расположение каналов : Front: L C R, как на иголках, Side: L R, чаще всего, LFE
    Частота : 48, словно музыка, 0 КГц
    Частота кадров : 31, привычно, 250 кадров/сек (1536 spf)
    Метод сжатия : С потерями
    Размер потока : 158 Мбайт (7%)
    Язык : English
    Default : Нет
    Forced : Нет


    Скриншоты для ознакомления




    Онлайн видео Ночной администратор



    Ночной администратор/The Night Manager (2016) WEB-DL [H.264/1080p-LQ] (сезон 1, серии 1 из 6) LostFilm (обновляемая)
    загрузка...
    Рейтинг →
     (голосов: 1, оценка 5/5, голосовать можно 1 раз )

    Другие торренты по теме:

  • Ночной администратор / The Night Manager (2016) WEB-DLRip (сезон 1, серии 1 из 6) NewStudio (обновляемая) скачать торрент бесплатно
  • Ночной администратор / The Night Manager (2016) WEB-DL [H.264 / 1080p-LQ] (сезон 1, серии 1 из 6) AMC (обновляемая) скачать торрент бесплатно
  • Ночной администратор / The Night Manager (2016) WEB-DLRip (сезон 1, серии 1 из 6) AMC (обновляемая) скачать торрент бесплатно
  • Ночной администратор / The Night Manager (2016) WEB-DLRip (сезон 1, серии 1 из 6) LostFilm (обновляемая) скачать торрент бесплатно
  • Ночной администратор / The Night Manager (2016) WEB-DL [H.264 / 720p-LQ] (сезон 1, серии 1-2 из 6) NewStudio (обновляемая) скачать торрент бесплатно
  • Ночной администратор / The Night Manager (2016) WEB-DL [H.264 / 720p-LQ] (сезон 1, серии 1-6 из 6) Jaskier скачать торрент бесплатно
  • Ночной администратор / The Night Manager (2016) WEB-DLRip [H.264] (сезон 1, серии 1-5 из 6) LostFilm [MP4|1280x720] скачать торрент бесплатно
  • Джон Ле Карре | Ночной администратор (2016) [MP3] скачать торрент бесплатно


    • Комментарии (0):

      Информация

      Информация

        Посетители, находящиеся в группе Гости, не могут оставлять комментарии в данной новости.

        ↓ Меню




        ↓ Опрос

        Вы добавили сайт в закладки?
        Да
        Нет


        Top 10 за неделю (Фильмы)