.
Авторизация | Регистрация
Хочешь лучшие торренты? Добавь свой email!
Добавить

Торрент скачать бесплатно

» » Мы из будущего: Дилогия (2008-2010) DVDRip / HDRip торрент скачать бесплатно




    Мы из будущего: Дилогия (2008-2010) DVDRip / HDRip торрент скачать бесплатно

    Опубликовал: Админ | Дата: 25-02-2016, 04:00 | Просмотров: 52

    Производство: Россия, Компания А-1 КИНО ВИДЕО
    Жанр: Фантастика, Военный
    Режиссер: Андрей Малюков
    Сценарий: Александр Шевцов, Эдуард Володарский, Кирилл Белевич
    Оператор: Владимир Спорышков, Ольга Ливинская
    Композитор: Иван Бурляев

    Актеры
    Данила Козловский, Дмитрий Волкострелов, Владимир Яглыч, Андрей Терентьев, Екатерина Климова, Борис Галкин, Даниил Страхов, Сергей Маховиков, Зоя Буряк, Глория Августинович

    Описание

    Действие картины разворачивается в двух временных пластах: в наши дни и в годы войны, во время тяжелых оборонительных боев августа 1942-го. Главные герои ленты — четверо черных следопытов (людей этой сомнительной профессии называют также черными копателями) — Борман, Череп, Чуха и Спирт. Взрывоопасный вопрос, сказал кто то из толпы, к чему не понятно. Они ведут раскопки в тех местах, где когда-то шли бои, чтобы потом продать найденные медали, ордена, документы и немецкое оружие.
    Дело это выгодное, но опасное. Однажды на месте раскопок начинает происходить нечто странное: в найденных солдатских книжках, принадлежавших погибшим солдатам Красной армии, вдруг обнаруживаются фотографии самих следопытов. Пытаясь прийти в себя, коллеги по черному бизнесу отправляются купаться в озере и… попадают в 1942 год. В самый разгар тяжелых боев.

    Продолжительность: 01: 55: 35
    Качество видео: DVDRip
    Видео: Xvid, 624x336, ~765 kbps
    Аудио: MP3, 2 ch, ~128.00 kbps
    Релиз от: Scarabey
    Код:

    General
    Complete name : My iz buduschego - Dilogy (2008-2010) DVDRip_HDRipMy.iz.buduschego.2008_DVDRip_[scarabey.org].avi
    Format : AVI
    Format/Info : Audio Video Interleave
    File size : 747 MiB
    Duration : 1h 55mn
    Overall bit rate : 904 Kbps
    Writing application : VirtualDubMod 1.5.10.3 |www.virtualdub-fr.org|| (build 2550/release)
    Writing library : VirtualDubMod build 2550/release
    Video
    ID : 0
    Format : MPEG-4 Visual
    Format profile : Advanced Simple@L5
    Format settings, BVOP : 1
    Format settings, QPel : No
    Format settings, GMC : No warppoints
    Format settings, Matrix : Custom
    Codec ID : XVID
    Codec ID/Hint : XviD
    Duration : 1h 55mn
    Bit rate : 766 Kbps
    Width : 624 pixels
    Height : 336 pixels
    Display aspect ratio : 1.85:1
    Frame rate : 25.000 fps
    Color space : YUV
    Chroma subsampling : 4:2:0
    Bit depth : 8 bits
    Scan type : Progressive
    Compression mode : Lossy
    Bits/(Pixel*Frame) : 0.146
    Stream size : 633 MiB (85%)
    Writing library : XviD 73
    Audio
    ID : 1
    Format : MPEG Audio
    Format version : Version 1
    Format profile : Layer 3
    Codec ID : 55
    Codec ID/Hint : MP3
    Duration : 1h 55mn
    Bit rate mode : Constant
    Bit rate : 128 Kbps
    Channel(s) : 2 channels
    Sampling rate : 48.0 KHz
    Compression mode : Lossy
    Stream size : 106 MiB (14%)
    Alignment : Aligned on interleaves
    Interleave, duration : 40 ms (1.00 video frame)
    Interleave, preload duratio : 504 ms
    Writing library : LAME3.99r
    Encoding settings : -m s -V 4 -q 2 -lowpass 17 -b 128


    Скриншоты для ознакомления




    Онлайн видео Мы из будущего: Дилогия (2008-2010) DVDRip



    Мы из будущего: Дилогия (2008-2010) DVDRip/HDRip
    загрузка...
    Рейтинг →
     (голосов: 1, оценка 3/5, голосовать можно 1 раз )

    Другие торренты по теме:

  • Грань будущего / Edge of Tomorrow (2014) BDRip
  • Грань будущего / Edge of Tomorrow (2014) BDRip [H.264]
  • Грань будущего / Edge of Tomorrow (2014) BDRip
  • Грань будущего / Edge of Tomorrow (2014) BDRip [1080p] 3D [Вертикальная анаморфная стереопара]
  • Грань будущего / Edge of Tomorrow (2014) BDRemux [1080p]
  • Грань будущего / Edge of Tomorrow (2014) BDRip [1080p]
  • Грань будущего / Edge of Tomorrow (2014) BDRip [1080p] 3D [Горизонтальная анаморфная стереопара]
  • Грань будущего / Edge of Tomorrow (2014) BDRip [720p]


    • Комментарии (0):

      Информация

      Информация

        Посетители, находящиеся в группе Гости, не могут оставлять комментарии в данной новости.

        ↓ Меню




        ↓ Опрос

        Вы добавили сайт в закладки?
        Да
        Нет


        Top 10 за месяц (Фильмы)