.
Авторизация | Регистрация
Хочешь лучшие торренты? Добавь свой email!
Добавить

Торрент скачать бесплатно

» » Съешь это / Eat It (1968) Screener торрент скачать бесплатно




    Съешь это / Eat It (1968) Screener торрент скачать бесплатно

    Опубликовал: Админ | Дата: 25-02-2016, 04:00 | Просмотров: 69

    Производство: Италия, Cemo Film
    Жанр: Комедия
    Режиссер: Франческо Казаретти

    Актеры
    Паоло Вилладжо, Пьеро Альбертини, Сильвия Дионисио, Моника Герферт, Росселла Баргамонти

    Описание

    Фермер, поставляющий мясо в мясную компанию Eat It, находит в лесу странного человека, который съедает неизмеримое количество пищи, после чего разыгрывается его сексуальная энергия. Когда бухгалтер компании узнает об этом, он решает использовать этого человека в рекламных целях. Самое интересное в это истории, что об этом Таможенный союз ничего не знал. Глава компании, Командаторе, хочет развивать свое производство все больше и больше и поручает ученым еще более возбудить аппетиты найденного человека. Но усилия ученых приводят к прямо противоположному результату...

    Релиз от: ФЕНИКС
    Продолжительность: 01: 24: 36
    Качество видео: Screener
    Перевод: Одноголосый закадровый
    Видео: Xvid, 2363 Кбит/сек, 704x416
    Аудио1: MP3, 2 ch, 128 Kbps - русский
    Аудио2: AC3, 2ch, 192 Kbps - итальянский
    Код:

    Общее
    Полное имя : D:Съешь это (1968) SCR.avi
    Формат : AVI
    Формат/Информация : Audio Video Interleave
    Размер файла : 1, 59 Гбайт
    Продолжительность : 1 ч. 24 м.
    Общий поток : 2698 Кбит/сек
    Программа кодирования : VirtualDubMod 1.5.10.2 (build 2540/release)
    Библиотека кодирования : VirtualDubMod build 2540/release
    Видео
    Идентификатор : 0
    Формат : MPEG-4 Visual
    Профиль формата : Advanced Simple@L5
    Параметр BVOP формата : 2
    Параметр QPel формата : Нет
    Параметр GMC формата : Без точки перехода
    Параметр матрицы формата : Default (H.263)
    Идентификатор кодека : XVID
    Идентификатор кодека/Подсказка : XviD
    Продолжительность : 1 ч. 24 м.
    Битрейт : 2363 Кбит/сек
    Ширина : 704 пикселя
    Высота : 416 пикселей
    Соотношение сторон : 5:3
    Частота кадров : 25, 000 кадров/сек
    Цветовое пространство : YUV
    Субдискретизация насыщенности : 4:2:0
    Битовая глубина : 8 бит
    Тип развёртки : Прогрессивная
    Метод сжатия : С потерями
    Бит/(Пиксели*Кадры) : 0.323
    Размер потока : 1, 40 Гбайт (88%)
    Библиотека кодирования : XviD 64
    Аудио #1
    Идентификатор : 1
    Формат : MPEG Audio
    Версия формата : Version 1
    Профиль формата : Layer 3
    Режим : Joint stereo
    Расширение режима : MS Stereo
    Идентификатор кодека : 55
    Идентификатор кодека/Подсказка : MP3
    Продолжительность : 1 ч. 24 м.
    Вид битрейта : Постоянный
    Битрейт : 128 Кбит/сек
    Каналы : 2 канала
    Частота : 48, 0 КГц
    Метод сжатия : С потерями
    Размер потока : 77, 5 Мбайт (5%)
    Выравнивание : Соединение по промежуткам
    Продолжительность промежутка : 40 мс. (1, 00 видеокадр)
    Время предзагрузки промежутка : 504 мс.
    Аудио #2
    Идентификатор : 2
    Формат : AC-3
    Формат/Информация : Audio Coding 3
    Расширение режима : CM (complete main)
    Параметр Endianness формата : Big
    Идентификатор кодека : 2000
    Продолжительность : 1 ч. Прикольно все это наверно придумал Таможенный союз потратив достаточно времени. 24 м.
    Вид битрейта : Постоянный
    Битрейт : 192 Кбит/сек
    Каналы : 2 канала
    Расположение каналов : Front: L R
    Частота : 48, 0 КГц
    Частота кадров : 31, 250 кадров/сек (1536 spf)
    Битовая глубина : 16 бит
    Метод сжатия : С потерями
    Размер потока : 116 Мбайт (7%)
    Выравнивание : Разделение по промежуткам
    Продолжительность промежутка : 40 мс. (1, 00 видеокадр)
    Время предзагрузки промежутка : 500 мс.


    Скриншоты для ознакомления




    Онлайн видео Съешь это



    Съешь это/Eat It (1968) Screener
    загрузка...
    Рейтинг →
     (голосов: 1, оценка 5/5, голосовать можно 1 раз )

    Другие торренты по теме:

  • Ногу Свело! - Съешь мое сердце (Бонус версия) (2014) [MP3|320 кб / с]<Rock> скачать через торрент бесплатно


    • Комментарии (0):

      Информация

      Информация

        Посетители, находящиеся в группе Гости, не могут оставлять комментарии в данной новости.

        ↓ Меню




        ↓ Опрос

        Вы добавили сайт в закладки?
        Да
        Нет


        Top 10 за месяц (Фильмы)