.
Авторизация | Регистрация
Хочешь лучшие торренты? Добавь свой email!
Добавить

Торрент скачать бесплатно

» » Викинги / Vikings (2016) WEB-DL [H.264 / 720p-LQ] (сезон 4, серии 1 из 20) OMSKBIRD records (обновляемая) торрент скачать бесплатно




    Викинги / Vikings (2016) WEB-DL [H.264 / 720p-LQ] (сезон 4, серии 1 из 20) OMSKBIRD records (обновляемая) торрент скачать бесплатно

    Опубликовал: Админ | Дата: 23-02-2016, 04:00 | Просмотров: 301

    Производство: Ирландия, Канада/World 2000 Entertainment, Take 5 Productions, Shaw Media
    Жанр: боевик, драма, история
    Режиссер: Кен Джиротти, Киаран Доннелли, Джефф Вулнаф

    Актеры
    Трэвис Фиммел, Клайв Стэнден, Густаф Скарсгард, Кэтрин Уинник, Джордж Благден, Джессалин Гилсиг, Мод Хирст, Алисса Сазерленд, Джефферсон Холл, Александр Людвиг и др.

    Описание

    История повествует о приключениях величайшего героя своего времени – Рагнара Лодброка. В сериале показан Рагнар со своим племенем братьев-викингов и его семьёй в процессе становления королём всех племён викингов. О таком странном сюжете не догадывалась даже Вера Брежнева. Рагнар – бесстрашный воин, и религиозный викинг, который объединяет все племена и распространяет среди них поклонение скандинавским богам. Согласно легенде, он – прямой потомок Одина, бога войны и воителей.

    Продолжительность: ~00: 44: 00 серия
    Качество видео: WEB-DL 720p
    Перевод: Многоголосый закадровый, профессиональный |OMSKBIRD records
    Вид субтитров: вшитые отключаемые
    Язык субтитров: английский
    Видео: AVC/H.264, 1280x718 (16: 9), ~3994 kbps
    Аудио # rus: AC3, 6 ch, 384 kbps, CBR - многоголосый закадровый
    Аудио # eng: AC3, 6 ch, 384 kbps, CBR - оригинал
    Код:

    Общее
    Уникальный идентификатор : 185002871786904279394688630156079327342 (0x8B2E41CE8038B9339F9F97645302E86E)
    Полное имя : G:FilmsVikings.s04.720p.OmskBirdVikings.S04E01.720p.WEB-DL.OmskBird.DD5.1.mkv
    Формат : Matroska
    Версия формата : Version 4/Version 2
    Размер файла : 1, 47 Гбайт
    Продолжительность : 44 м.
    Общий поток : 4764 Кбит/сек
    Дата кодирования : UTC 2016-02-20 05:45:21
    Программа кодирования : mkvmerge v8.6.1 (\'Flying\') 64bit
    Библиотека кодирования : libebml v1.3.3 + libmatroska v1.4.4
    Видео
    Идентификатор : 1
    Формат : AVC
    Формат/Информация : Advanced Video Codec
    Профиль формата :High@L3.1
    Параметр CABAC формата : Нет
    Параметр ReFrames формата : 2 кадра
    Идентификатор кодека : V_MPEG4/ISO/AVC
    Продолжительность : 44 м.
    Битрейт : 3994 Кбит/сек
    Ширина : 1280 пикселей
    Высота : 718 пикселей
    Соотношение сторон : 16:9
    Режим частоты кадров : Постоянный
    Частота кадров : 23, 976 (23976/1000) кадра/сек
    Цветовое пространство : YUV
    Субдискретизация насыщенности : 4:2:0
    Битовая глубина : 8 бит
    Тип развёртки : Прогрессивная
    Бит/(Пиксели*Кадры) : 0.181
    Размер потока : 1, 23 Гбайт (84%)
    Язык : English
    Default : Да
    Forced : Нет
    colour_range : Limited
    Основные цвета : BT.709
    Характеристики трансфера : BT.709
    Коэффициенты матрицы : BT.709
    Аудио #1
    Идентификатор : 2
    Формат : AC-3
    Формат/Информация : Audio Coding 3
    Расширение режима : CM (complete main)
    Параметр Endianness формата : Big
    Идентификатор кодека : A_AC3
    Продолжительность : 44 м.
    Вид битрейта : Постоянный
    Битрейт : 384 Кбит/сек
    Каналы : 6 каналов
    Расположение каналов : Front: L C R, Side: L R, LFE
    Частота : 48, 0 КГц
    Частота кадров : 31, 250 кадров/сек (1536 spf)
    Метод сжатия : С потерями
    Размер потока : 121 Мбайт (8%)
    Заголовок : OmskBird 5.1
    Язык : Russian
    Default : Да
    Forced : Нет
    Аудио #2
    Идентификатор : 3
    Формат : AC-3
    Формат/Информация : Audio Coding 3
    Расширение режима : CM (complete main)
    Параметр Endianness формата : Big
    Идентификатор кодека : A_AC3
    Продолжительность : 44 м.
    Вид битрейта : Постоянный
    Битрейт : 384 Кбит/сек
    Каналы : 6 каналов
    Расположение каналов : Front: L C R, Side: L R, LFE
    Частота : 48, 0 КГц
    Частота кадров : 31, 250 кадров/сек (1536 spf)
    Метод сжатия : С потерями
    Размер потока : 121 Мбайт (8%)
    Заголовок : original 5.1
    Язык : English
    Default : Нет
    Forced : Нет
    Текст
    Идентификатор : 4
    Формат : UTF-8
    Идентификатор кодека : S_TEXT/UTF8
    Идентификатор кодека/Информация : UTF-8 Plain Text
    Продолжительность : 43 м.
    Битрейт : 40 бит/сек
    Count of elements : 535
    Размер потока : 13, 0 Кбайт (0%)
    Заголовок : CC
    Язык : English
    Default : Нет
    Forced : Нет


    Скриншоты для ознакомления




    Онлайн видео Викинги



    Викинги/Vikings (2016) WEB-DL [H.264/720p-LQ] (сезон 4, серии 1 из 20) OMSKBIRD records (обновляемая)
    загрузка...
    Рейтинг →
     (голосов: 1, оценка 4/5, голосовать можно 1 раз )

    Другие торренты по теме:

  • Викинги / Vikings (2014) BD-Remux [1080p] (сезон 2, серии 1-10 из 10) (AlexFilm, NewStudio, LostFilm, BaibaKo) скачать через торрент бесплатно
  • Викинги / Vikings (2015) HDTVRip [H.264 / 720p-LQ] (сезон 3, серии 1 из 10) (AlexFilm) (обновляемая)
  • Викинги / Vikings (2015) HDTVRip (сезон 3, серии 1 из 10) AlexFilm (обновляемая)
  • Викинги / Vikings (2015) WEB-DL [H.264 / 1080p-LQ] (сезон 3, серии 1 из 10) LostFilm (обновляемая)
  • Викинги / Vikings (2015) WEB-DLRip (сезон 3, серии 1 из 10) LostFilm (обновляемая)
  • Викинги / Vikings (2013-2015) WEB-DLRip [H.264] (сезон 1-3, серии 1-20 из 29) (BaibaKo) (обновляемая)
  • Викинги / Vikings (2015) WEB-DL [H.264 / 1080p-LQ] (сезон 3, серии 1 из 10) (BaibaKo) (обновляемая) скачать через торрент бесплатно
  • Викинги / Vikings (2015) WEB-DL [H.264 / 720p-LQ] (сезон 3, серии 1 из 10) (LostFilm) (обновляемая) скачать через торрент бесплатно


    • Комментарии (0):

      Информация

      Информация

        Посетители, находящиеся в группе Гости, не могут оставлять комментарии в данной новости.

        ↓ Меню




        ↓ Опрос

        Вы добавили сайт в закладки?
        Да
        Нет


        Top 10 за месяц (Фильмы)