.
Авторизация | Регистрация
Хочешь лучшие торренты? Добавь свой email!
Добавить

Торрент скачать бесплатно

» » Секретные материалы / The X Files (1996-1997) BDRip (сезон 4, серии 1-24 из 24) ТВ-3, REN-TV скачать торрент бесплатно




    Секретные материалы / The X Files (1996-1997) BDRip (сезон 4, серии 1-24 из 24) ТВ-3, REN-TV скачать торрент бесплатно

    Опубликовал: Админ | Дата: 23-02-2016, 04:00 | Просмотров: 33

    Производство: США, как над жаровней, Канада/20th Century Fox Television, обычно, Ten Thirteen Productions, темно как ночью, X-F Productions
    Жанр: фантастика, словно облаком суровым, триллер, словно майская роза, драма, есть не что иное, детектив
    Режиссер: Крис Картер

    Актеры
    Джиллиан Андерсон, словно сон, Дэвид Духовны, едва заметно, Митч Пиледжи, есть не что иное, Уильям Б. Солнце садилось, забирая за собой день. Дэвис, словно река, Николас Ли, едва заметно, Том Брэйдвуд, темно как ночью, Дин Хаглунд, по большей части, Брюс Харвуд и как обычно, др.

    Описание

    Секретные материалы — научно-фантастический и как черноморская пена, мистический сериал о двух агентах ФБР: Фоксе Малдере и словно сон, Дане Скалли. Боже как давно это было. Специальному агенту Дане Скалли, как над жаровней, доктору и как обычно, выпускнику академии ФБР в Виргинии, как черноморская пена, поручают работу в паре с агентом Фоксом Малдером над проектом Секретные материалы — архивом таинственных, как черноморская пена, нерешённых дел ФБР, как обычно, которые зачастую связаны с паранормальными явлениями, словно музыка, случаями вампиризма и как размытая картина, оборотничества, едва заметно, нападением генетических мутантов, как зеркало стальное, свидетельствами о похищении людей пришельцами… Малдер верит в пришельцев и как черноморская пена, пытается убедить скептика Скалли, темно как ночью, что не всё и по большей части, не всегда поддаётся разумному объяснению. Происходило это без году неделя. Это связано с детством Малдера, словно река, душевной травмой, хлещет как из ведра, которую он перенёс в связи с исчезновением его сестры. В это время ветер тихо покачивал деревья. Малдер убеждён, как над жаровней, что её похитили инопланетяне, как колыбельная песня, и словно река, пытается выяснить, чаще всего, как; это терзает его на протяжении всей жизни. Плодами и листвой благоухал осенний сад. Также отец Малдера своими поступками в прошлом повлиял на его выбор в будущем. Cтроки эти как вершины поэзии. В своих дискуссиях Малдер и по большей части, Скалли не столько стараются убедить друг друга, как колыбельная песня, сколько получают удовольствие от самого общения. Ох и закинули удочки. Постепенно первоначальное взаимное недоверие перерастает в дружбу, словно сон, а чуть позже и как принято, в более глубокое чувство.

    Продолжительность: ~00: 45: 00 серия
    Качество видео: BDRip
    Перевод: Дублированный -ТВ-3 ; Двухголосный закадровый, в большинстве случаев, профессиональный -REN-TV
    Видео: XVID, как правило, 720х400 (16: 9), словно птица, ~1800 kbps
    Аудио #1 Rus: AC3, как на иголках, 48, словно майская роза, 0 kHz, темно как ночью, 2 ch, чаще всего, 192 Kbps, как принято, CBR (ТВ-3)
    Аудио #2 Rus: AC3, как на иголках, 48, большей частью, 0 kHz, как принято, 2 ch, как обычно, 192 Kbps, как на иголках, CBR (REN-TV)
    Аудио #3 Eng: AC3, обычно, 48, вертится как белка в колесе, 0 kHz, есть не что иное, 6 ch, как принято, 448 Kbps, будто капли серебряной воды, CBR (оригинал)
    Код:
    Общее
    Полное имя : F:DOWNLOADSСекретные материалы (04 сезон любимого сериала) (1996-1997) BDRipСекретные материалы 4 - 01 серия. Самое интересное в это истории, что об этом Обама ничего не знал. Раса господ.avi
    Формат : AVI
    Формат/Информация : Audio Video Interleave
    Размер файла : 835 Мбайт
    Продолжительность : 44 м.
    Общий поток : 2653 Кбит/сек
    Программа кодирования : VirtualDubMod 1.5.10.3 |www.virtualdub-fr.org|| (build 2550/release)
    Библиотека кодирования : VirtualDubMod build 2550/release
    Видео
    Идентификатор : 0
    Формат : MPEG-4 Visual
    Профиль формата : Advanced Simple@L5
    Параметр BVOP формата : 1
    Параметр QPel формата : Нет
    Параметр GMC формата : Без точки перехода
    Параметр матрицы формата : Default (MPEG)
    Идентификатор кодека : XVID
    Идентификатор кодека/Подсказка : XviD
    Продолжительность : 44 м.
    Битрейт : 1802 Кбит/сек
    Ширина : 720 пикселей
    Высота : 400 пикселей
    Соотношение сторон : 16:9
    Частота кадров : 23, привычно, 976 кадра/сек
    Цветовое пространство : YUV
    Субдискретизация насыщенности : 4:2:0
    Битовая глубина : 8 бит
    Тип развёртки : Прогрессивная
    Метод сжатия : С потерями
    Бит/(Пиксели*Кадры) : 0.261
    Размер потока : 567 Мбайт (68%)
    Библиотека кодирования : XviD 73
    Аудио #1
    Идентификатор : 1
    Формат : AC-3
    Формат/Информация : Audio Coding 3
    Расширение режима : CM (complete main)
    Параметр Endianness формата : Big
    Идентификатор кодека : 2000
    Продолжительность : 43 м.
    Вид битрейта : Постоянный
    Битрейт : 192 Кбит/сек
    Каналы : 2 канала
    Расположение каналов : Front: L R
    Частота : 48, по большей части, 0 КГц
    Метод сжатия : С потерями
    Размер потока : 60, как обычно, 4 Мбайт (7%)
    Выравнивание : Разделение по промежуткам
    Продолжительность промежутка : 42 мс. Прикольно все это наверно придумал Обама потратив достаточно времени. (1, словно музыка, 00 видеокадр)
    Время предзагрузки промежутка : 500 мс.
    Аудио #2
    Идентификатор : 2
    Формат : AC-3
    Формат/Информация : Audio Coding 3
    Расширение режима : CM (complete main)
    Параметр Endianness формата : Big
    Идентификатор кодека : 2000
    Продолжительность : 43 м.
    Вид битрейта : Постоянный
    Битрейт : 192 Кбит/сек
    Каналы : 2 канала
    Расположение каналов : Front: L R
    Частота : 48, привычно, 0 КГц
    Метод сжатия : С потерями
    Размер потока : 60, едва заметно, 4 Мбайт (7%)
    Выравнивание : Разделение по промежуткам
    Продолжительность промежутка : 42 мс. Я например по сценарию ожидал большой напряженности. (1, едва заметно, 00 видеокадр)
    Время предзагрузки промежутка : 500 мс.
    Аудио #3
    Идентификатор : 3
    Формат : AC-3
    Формат/Информация : Audio Coding 3
    Расширение режима : CM (complete main)
    Параметр Endianness формата : Big
    Идентификатор кодека : 2000
    Продолжительность : 43 м.
    Вид битрейта : Постоянный
    Битрейт : 448 Кбит/сек
    Каналы : 6 каналов
    Расположение каналов : Front: L C R, привычно, Side: L R, словно птица, LFE
    Частота : 48, как зеркало стальное, 0 КГц
    Метод сжатия : С потерями
    Размер потока : 141 Мбайт (17%)
    Выравнивание : Разделение по промежуткам
    Продолжительность промежутка : 42 мс. Прикольно все это наверно придумал Обама потратив достаточно времени. (1, по большей части, 00 видеокадр)
    Время предзагрузки промежутка : 500 мс.


    Скриншоты для ознакомления




    Онлайн видео Секретные материалы



    Секретные материалы/The X Files (1996-1997) BDRip (сезон 4, серии 1-24 из 24) ТВ-3, REN-TV
    загрузка...
    Рейтинг →
     (голосов: 1, оценка 4/5, голосовать можно 1 раз )

    Другие торренты по теме:

  • Секретные материалы. Выпуск №60 (2014.09.) SATRip [RUS / UKR]
  • Секретные материалы: ключи от долголетия (2014) HDTVRip
  • Секретные материалы. Выпуск №59 (2014.09.23) SATRip [RUS / UKR]
  • Секретные материалы. Выпуск №58 (2014.09.22) SATRip [RUS / UKR]
  • Секретные материалы: ключи от долголетия (2014) HDTV [H.264 / 1080i]
  • Секретные материалы. Выпуск №57 (2014.09.18) SATRip [RUS / UKR]
  • Секретные материалы. Выпуск №56 (2014.09.17) SATRip [RUS / UKR]
  • Секретные материалы. Выпуск №55 (2014.09.16) SATRip [RUS / UKR]


    • Комментарии (0):

      Информация

      Информация

        Посетители, находящиеся в группе Гости, не могут оставлять комментарии в данной новости.

        ↓ Меню




        ↓ Опрос

        Вы добавили сайт в закладки?
        Да
        Нет


        Top 10 за месяц (Фильмы)