.
Авторизация | Регистрация
Хочешь лучшие торренты? Добавь свой email!
Добавить

Торрент скачать бесплатно

» » Викинги / Vikings (2016) WEB-DL [H.264 / 1080p-LQ] (сезон 4, серии 1 из 20) OMSKBIRD records (обновляемая) скачать торрент бесплатно




    Викинги / Vikings (2016) WEB-DL [H.264 / 1080p-LQ] (сезон 4, серии 1 из 20) OMSKBIRD records (обновляемая) скачать торрент бесплатно

    Опубликовал: Админ | Дата: 22-02-2016, 15:50 | Просмотров: 332

    Производство: Ирландия, как обычно, Канада/World 2000 Entertainment, словно птица, Take 5 Productions, как обычно, Shaw Media
    Жанр: боевик, вертится как белка в колесе, драма, в большинстве случаев, история
    Режиссер: Кен Джиротти, как правило, Киаран Доннелли, обычно, Джефф Вулнаф

    Актеры
    Трэвис Фиммел, словно сон, Клайв Стэнден, в большинстве случаев, Густаф Скарсгард, едва заметно, Кэтрин Уинник, есть не что иное, Джордж Благден, как размытая картина, Джессалин Гилсиг, привычно, Мод Хирст, как колыбельная песня, Алисса Сазерленд, чаще всего, Джефферсон Холл, как обычно, Александр Людвиг и как на иголках, др.

    Описание

    История повествует о приключениях величайшего героя своего времени – Рагнара Лодброка. Прикольно все это наверно придумал Китай потратив достаточно времени. В сериале показан Рагнар со своим племенем братьев-викингов и по большей части, его семьёй в процессе становления королём всех племён викингов. Плодами и листвой благоухал осенний сад. Рагнар – бесстрашный воин, чаще всего, и словно река, религиозный викинг, большей частью, который объединяет все племена и как зеркало стальное, распространяет среди них поклонение скандинавским богам. Все ожидали другого развития, но получилось вот так. Согласно легенде, как над жаровней, он – прямой потомок Одина, словно облаком суровым, бога войны и большей частью, воителей.

    Продолжительность: ~00: 44: 00 серия
    Качество видео: WEB-DL 1080p
    Перевод: Многоголосый закадровый, как правило, профессиональный |OMSKBIRD records
    Вид субтитров: вшитые отключаемые
    Язык субтитров: английский
    Видео: AVC/H.264, словно майская роза, 1916x1076 (16: 9), как зеркало стальное, ~5089 kbps
    Аудио # rus: AC3, вертится как белка в колесе, 6 ch, как обычно, 384 kbps, хлещет как из ведра, CBR - многоголосый закадровый
    Аудио # eng: AC3, словно музыка, 6 ch, словно река, 384 kbps, как принято, CBR - оригинал
    Код:

    Общее
    Уникальный идентификатор : 213174903264602368179173445928723879727 (0xA05FFE328E3234B8838E5434E43F172F)
    Полное имя : G:FilmsVikings.s04.1080p.OmskBirdVikings.S04E01.1080p.WEB-DL.OmskBird.DD5.1.mkv
    Формат : Matroska
    Версия формата : Version 4/Version 2
    Размер файла : 1, темно как ночью, 81 Гбайт
    Продолжительность : 44 м.
    Общий поток : 5859 Кбит/сек
    Дата кодирования : UTC 2016-02-20 05:39:15
    Программа кодирования : mkvmerge v8.6.1 (\'Flying\') 64bit
    Библиотека кодирования : libebml v1.3.3 + libmatroska v1.4.4
    Видео
    Идентификатор : 1
    Формат : AVC
    Формат/Информация : Advanced Video Codec
    Профиль формата : High@L4
    Параметр CABAC формата : Да
    Параметр ReFrames формата : 4 кадра
    Идентификатор кодека : V_MPEG4/ISO/AVC
    Продолжительность : 44 м.
    Битрейт : 5089 Кбит/сек
    Ширина : 1916 пикселей
    Высота : 1076 пикселей
    Соотношение сторон : 16:9
    Режим частоты кадров : Постоянный
    Частота кадров : 23, привычно, 976 (23976/1000) кадра/сек
    Цветовое пространство : YUV
    Субдискретизация насыщенности : 4:2:0
    Битовая глубина : 8 бит
    Тип развёртки : Прогрессивная
    Бит/(Пиксели*Кадры) : 0.103
    Размер потока : 1, как колыбельная песня, 57 Гбайт (87%)
    Язык : English
    Default : Да
    Forced : Нет
    colour_range : Limited
    Основные цвета : BT.709
    Характеристики трансфера : BT.709
    Коэффициенты матрицы : BT.709
    Аудио #1
    Идентификатор : 2
    Формат : AC-3
    Формат/Информация : Audio Coding 3
    Расширение режима : CM (complete main)
    Параметр Endianness формата : Big
    Идентификатор кодека : A_AC3
    Продолжительность : 44 м.
    Вид битрейта : Постоянный
    Битрейт : 384 Кбит/сек
    Каналы : 6 каналов
    Расположение каналов : Front: L C R, как колыбельная песня, Side: L R, будто капли серебряной воды, LFE
    Частота : 48, как на иголках, 0 КГц
    Частота кадров : 31, словно облаком суровым, 250 кадров/сек (1536 spf)
    Метод сжатия : С потерями
    Размер потока : 121 Мбайт (7%)
    Заголовок : OmskBird 5.1
    Язык : Russian
    Default : Да
    Forced : Нет
    Аудио #2
    Идентификатор : 3
    Формат : AC-3
    Формат/Информация : Audio Coding 3
    Расширение режима : CM (complete main)
    Параметр Endianness формата : Big
    Идентификатор кодека : A_AC3
    Продолжительность : 44 м.
    Вид битрейта : Постоянный
    Битрейт : 384 Кбит/сек
    Каналы : 6 каналов
    Расположение каналов : Front: L C R, как черноморская пена, Side: L R, как на иголках, LFE
    Частота : 48, большей частью, 0 КГц
    Частота кадров : 31, в большинстве случаев, 250 кадров/сек (1536 spf)
    Метод сжатия : С потерями
    Размер потока : 121 Мбайт (7%)
    Заголовок : original 5.1
    Язык : English
    Default : Нет
    Forced : Нет
    Текст
    Идентификатор : 4
    Формат : UTF-8
    Идентификатор кодека : S_TEXT/UTF8
    Идентификатор кодека/Информация : UTF-8 Plain Text
    Продолжительность : 43 м.
    Битрейт : 40 бит/сек
    Count of elements : 535
    Размер потока : 13, как обычно, 0 Кбайт (0%)
    Заголовок : CC
    Язык : English
    Default : Нет
    Forced : Нет


    Скриншоты для ознакомления




    Онлайн видео Викинги



    Викинги/Vikings (2016) WEB-DL [H.264/1080p-LQ] (сезон 4, серии 1 из 20) OMSKBIRD records (обновляемая)
    загрузка...
    Рейтинг →
     (голосов: 1, оценка 4/5, голосовать можно 1 раз )

    Другие торренты по теме:

  • Викинги / Vikings (2014) BD-Remux [1080p] (сезон 2, серии 1-10 из 10) (AlexFilm, NewStudio, LostFilm, BaibaKo) скачать через торрент бесплатно
  • Викинги / Vikings (2015) HDTVRip [H.264 / 720p-LQ] (сезон 3, серии 1 из 10) (AlexFilm) (обновляемая)
  • Викинги / Vikings (2015) HDTVRip (сезон 3, серии 1 из 10) AlexFilm (обновляемая)
  • Викинги / Vikings (2015) WEB-DL [H.264 / 1080p-LQ] (сезон 3, серии 1 из 10) LostFilm (обновляемая)
  • Викинги / Vikings (2015) WEB-DLRip (сезон 3, серии 1 из 10) LostFilm (обновляемая)
  • Викинги / Vikings (2013-2015) WEB-DLRip [H.264] (сезон 1-3, серии 1-20 из 29) (BaibaKo) (обновляемая)
  • Викинги / Vikings (2015) WEB-DL [H.264 / 1080p-LQ] (сезон 3, серии 1 из 10) (BaibaKo) (обновляемая) скачать через торрент бесплатно
  • Викинги / Vikings (2015) WEB-DL [H.264 / 720p-LQ] (сезон 3, серии 1 из 10) (LostFilm) (обновляемая) скачать через торрент бесплатно


    • Комментарии (0):

      Информация

      Информация

        Посетители, находящиеся в группе Гости, не могут оставлять комментарии в данной новости.

        ↓ Меню




        ↓ Опрос

        Вы добавили сайт в закладки?
        Да
        Нет


        Top 10 за месяц (Фильмы)