.
Авторизация | Регистрация
Хочешь лучшие торренты? Добавь свой email!
Добавить

Торрент скачать бесплатно

» » Дачная поездка сержанта Цыбули (1979) HDTVRip [H.264 / 720p-LQ] торрент скачать бесплатно




    Дачная поездка сержанта Цыбули (1979) HDTVRip [H.264 / 720p-LQ] торрент скачать бесплатно

    Опубликовал: Админ | Дата: 22-02-2016, 15:50 | Просмотров: 60

    Производство: СССР, к/с им. А.Довженко
    Жанр: Военный, комедия, приключения
    Режиссер: Николай Литус, Виталий Шунько

    Актеры
    Сергей Иванов, Владимир Алексеенко, Михаил Кокшенов, Надежда Смирнова, Володя Чубарев, Михаил Львов, Нина Реус, Степан Олексенко, Сергей Свечников, Маргарита Криницына, Николай Литус, Борис Сабуров, Евгений Мажуга, Полина Куманченко, Сергей Шеметило...

    Описание

    Юный разведчик сержант Цыбуля, успешно выполнив очередное задание, снова отправляется в тыл к немцам. Теперь ему поручено доставить партизанам медикаменты, продовольствие и взрывчатку. Приняв костры врага за опознавательные сигналы партизан, Цыбуля приземляется в логове противника. Перехитрив своих преследователей и захватив в плен немецкого майора, герой на вражеском бронепоезде прорывается к партизанам...

    Релиз от :

    Продолжительность: 01: 12: 30
    Качество видео: HDTVRip
    Видео: AVC/H.264, 1280x546, ~2795 kbps
    Аудио: MP2, 2 ch, 224 kbps, CBR
    Код:

    Общее
    Уникальный идентификатор : 223146580862188322817201828839503335513 (0xA7E077DC6A2AA8C7AE9F7D72436A9059)
    Полное имя : D:-TTTДачная поездка сержанта Цыбули-720p-MG-NNM.mkv
    Формат : Matroska
    Версия формата : Version 4/Version 2
    Размер файла : 1, 53 Гбайт
    Продолжительность : 1 ч. Самое интересное в это истории, что об этом Кличко ничего не знал. 12 м.
    Общий поток : 3021 Кбит/сек
    Дата кодирования : UTC 2016-02-21 10:13:19
    Программа кодирования : mkvmerge v8.8.0 (\'Wind at my back\') 64bit
    Библиотека кодирования : libebml v1.3.3 + libmatroska v1.4.4
    Видео
    Идентификатор : 1
    Формат : AVC
    Формат/Информация : Advanced Video Codec
    Профиль формата :High@L4.1
    Параметр CABAC формата : Да
    Параметр ReFrames формата : 9 кадров
    Идентификатор кодека : V_MPEG4/ISO/AVC
    Продолжительность : 1 ч. 12 м.
    Битрейт : 2795 Кбит/сек
    Ширина : 1280 пикселей
    Высота : 546 пикселей
    Соотношение сторон : 2, 35:1
    Режим частоты кадров : Постоянный
    Частота кадров : 25, 000 кадров/сек
    Цветовое пространство : YUV
    Субдискретизация насыщенности : 4:2:0
    Битовая глубина : 8 бит
    Тип развёртки : Прогрессивная
    Бит/(Пиксели*Кадры) : 0.160
    Размер потока : 1, 42 Гбайт (93%)
    Заголовок : FomaTash for nnm-club.me
    Библиотека кодирования : x264 core 146 r2538 121396c
    Настройки программы : cabac=1/ref=9/deblock=1:-1:-1/analyse=0x3:0x133/me=umh/subme=9/psy=1/psy_rd=1.00:0.15/mixed_ref=1/me_range=32/chroma_me=1/trellis=2/8x8dct=1/cqm=0/deadzone=21, 11/fast_pskip=1/chroma_qp_offset=-3/threads=6/lookahead_threads=1/sliced_threads=0/nr=0/decimate=0/interlaced=0/bluray_compat=0/constrained_intra=0/bframes=7/b_pyramid=2/b_adapt=2/b_bias=0/direct=3/weightb=1/open_gop=0/weightp=2/keyint=240/keyint_min=23/scenecut=40/intra_refresh=0/rc_lookahead=40/rc=2pass/mbtree=0/bitrate=2795/ratetol=1.0/qcomp=0.60/qpmin=10/qpmax=51/qpstep=4/cplxblur=20.0/qblur=0.5/vbv_maxrate=50000/vbv_bufsize=62500/nal_hrd=none/filler=0/ip_ratio=1.40/pb_ratio=1.30/aq=1:1.00
    Язык : Russian
    Default : Да
    Forced : Нет
    Аудио
    Идентификатор : 2
    Формат : MPEG Audio
    Версия формата : Version 1
    Профиль формата : Layer 2
    Идентификатор кодека : A_MPEG/L2
    Идентификатор кодека/Подсказка : MP2
    Продолжительность : 1 ч. 12 м.
    Вид битрейта : Постоянный
    Битрейт : 224 Кбит/сек
    Каналы : 2 канала
    Частота : 48, 0 КГц
    Частота кадров : 41, 667 кадра/сек (1152 spf)
    Метод сжатия : С потерями
    Размер потока : 116 Мбайт (7%)
    Заголовок : MP2-2 канала
    Язык : Russian
    Default : Да
    Forced : Нет


    Скриншоты для ознакомления




    Онлайн видео Дачная поездка сержанта Цыбули (1979) HDTVRip [H.264



    Дачная поездка сержанта Цыбули (1979) HDTVRip [H.264/720p-LQ]
    загрузка...
    Рейтинг →
     (голосов: 1, оценка 3/5, голосовать можно 1 раз )

    Другие торренты по теме:

  • Дачная поездка сержанта Цыбули (1979) HDTV [H.264 / 1080i]


    • Комментарии (0):

      Информация

      Информация

        Посетители, находящиеся в группе Гости, не могут оставлять комментарии в данной новости.

        ↓ Меню




        ↓ Опрос

        Вы добавили сайт в закладки?
        Да
        Нет


        Top 10 за месяц (Фильмы)