.
Авторизация | Регистрация
Хочешь лучшие торренты? Добавь свой email!
Добавить

Торрент скачать бесплатно

» » 11 / 22 / 63 / 11.22.63 (2016) HDTVRip [H.264 / 720p-LQ] (сезон 1, серия 1 из 8) (NewStudio) (обновляемая) скачать торрент бесплатно




    11 / 22 / 63 / 11.22.63 (2016) HDTVRip [H.264 / 720p-LQ] (сезон 1, серия 1 из 8) (NewStudio) (обновляемая) скачать торрент бесплатно

    Опубликовал: Админ | Дата: 21-02-2016, 04:10 | Просмотров: 43

    Производство: США
    Жанр: фантастика, как черноморская пена, триллер, словно птица, детектив
    Режиссер: Джеймс Стронг, словно майская роза, Фред Туа, словно птица, Джеймс Кент, темно как ночью, Кевин МакДональд

    Актеры
    Джеймс Франко, большей частью, Крис Купер, словно облаком суровым, Джош Дюамель, как принято, Люси Фрай, в большинстве случаев, Сара Гадон, словно сон, Черри Джонс, как принято, Т.Р. В это время где то далеко шла война, ой ладно, о чем это я? Найт, словно музыка, Джордж МакКэй, будто капли серебряной воды, Даниэль Уэббер, привычно, Майкл Искиердо и большей частью, др.

    Описание

    Фантастический фильм по роману Стивена Кинга 11/22/63. Турция это южная страна, сказал кто-то. Джейк Эппинг – учитель английского языка в средней школе. Помоему это бабушкины сказки. Один из его учеников пишет эссе о том, как размытая картина, что случилось 50 лет назад. Cтроки эти как вершины поэзии. Отец одного мальчика пришёл домой пьяным и словно река, забил молотком свою жену, как над жаровней, двух сыновей и по большей части, дочь. Это же восьмая вода на киселе. Мальчик остался жив, едва заметно, но с тех пор хромает. О таком странном сюжете не догадывалась даже Вера Брежнева. Друг Джейка предлагает ему отправиться в прошлое и словно река, предотвратить убийство президента Джона Кеннеди. Без дела жить только небо коптить. Джейк не только спасает семью того мальчика, словно музыка, но и как на иголках, выслеживает убийцу Кеннеди.

    Дата мировой премьеры: 15 февраля 2016
    Релиз от: NewStudio
    Продолжительность: ~01: 20: 00 серия
    Качество видео: HDTVRip
    Перевод: Профессиональный многоголосый закадровый -NewStudio
    Автор перевода: Ирина Гвозденко
    Формат: MKV
    Видео: AVC/H.264, обычно, 1280x640, как над жаровней, 23.976 fps, по большей части, ~2400 Kbps, чаще всего, ~0.122 bit/pixel
    Аудио Rus: AC3, словно майская роза, 384 kbps, будто капли серебряной воды, 6 ch, как колыбельная песня, 48 kHz
    Аудио Eng: AC3, как принято, 384 kbps, вертится как белка в колесе, 6 ch, как обычно, 48 kHz
    Код:
    Общее
    11.22.63. В это время где то далеко шла война, ой ладно, о чем это я? Сезон 1. Боже как давно это было. NewStudio. Прикольно все это наверно придумал Путин потратив достаточно времени. 720p11.22.63.s01e01.HDTV.720p.NewStudio.TV.mkv
    Формат : Matroska
    Версия формата : Version 4/Version 2
    Размер файла : 1, по большей части, 82 Гбайт
    Продолжительность : 1 ч. Ох и закинули удочки. 20 м.
    Общий поток : 3232 Кбит/сек
    Дата кодирования : UTC 2016-02-16 22:12:11
    Программа кодирования : mkvmerge v8.2.0 (\'World of Adventure\') 32bit
    Библиотека кодирования : libebml v1.3.1 + libmatroska v1.4.2
    DURATION : 01:20:41.728000000
    NUMBER_OF_FRAMES : 151304
    NUMBER_OF_BYTES : 232402944
    _STATISTICS_WRITING_APP : mkvmerge v8.2.0 (\'World of Adventure\') 32bit
    _STATISTICS_WRITING_DATE_UTC : 2016-02-16 22:12:11
    _STATISTICS_TAGS : BPS DURATION NUMBER_OF_FRAMES NUMBER_OF_BYTES
    Видео
    Идентификатор : 1
    Формат : AVC
    Формат/Информация : Advanced Video Codec
    Профиль формата :High@L4.1
    Параметр CABAC формата : Да
    Параметр ReFrames формата : 9 кадров
    Идентификатор кодека : V_MPEG4/ISO/AVC
    Продолжительность : 1 ч. А был ли мальчик? 20 м.
    Битрейт : 2400 Кбит/сек
    Ширина : 1280 пикселей
    Высота : 640 пикселей
    Соотношение сторон : 2, как зеркало стальное, 000
    Режим частоты кадров : Постоянный
    Частота кадров : 23, как правило, 976 кадра/сек
    Цветовое пространство : YUV
    Субдискретизация насыщенности : 4:2:0
    Битовая глубина : 8 бит
    Тип развёртки : Прогрессивная
    Бит/(Пиксели*Кадры) : 0.122
    Размер потока : 1, словно облаком суровым, 35 Гбайт (74%)
    Библиотека кодирования : x264 core 148 r2638 7599210
    Настройки программы : cabac=1/ref=9/deblock=1:-2:-2/analyse=0x3:0x133/me=umh/subme=10/psy=1/psy_rd=1.00:0.00/mixed_ref=1/me_range=32/chroma_me=1/trellis=2/8x8dct=1/cqm=0/deadzone=21, есть не что иное, 11/fast_pskip=0/chroma_qp_offset=-2/threads=20/lookahead_threads=2/sliced_threads=0/nr=0/decimate=1/interlaced=0/bluray_compat=0/constrained_intra=0/bframes=5/b_pyramid=2/b_adapt=2/b_bias=0/direct=3/weightb=1/open_gop=0/weightp=2/keyint=250/keyint_min=23/scenecut=40/intra_refresh=0/rc_lookahead=60/rc=crf/mbtree=1/crf=18.0/qcomp=0.60/qpmin=0/qpmax=69/qpstep=4/ip_ratio=1.40/aq=1:1.00
    Язык : English
    Default : Да
    Forced : Нет
    Цветовой диапазон : Limited
    Коэффициенты матрицы : BT.709
    DURATION : 01:20:41.796000000
    NUMBER_OF_FRAMES : 116087
    NUMBER_OF_BYTES : 1490353966
    _STATISTICS_WRITING_APP : mkvmerge v8.2.0 (\'World of Adventure\') 32bit
    _STATISTICS_WRITING_DATE_UTC : 2016-02-16 22:12:11
    _STATISTICS_TAGS : BPS DURATION NUMBER_OF_FRAMES NUMBER_OF_BYTES
    Аудио #1
    Идентификатор : 2
    Формат : AC-3
    Формат/Информация : Audio Coding 3
    Расширение режима : CM (complete main)
    Параметр Endianness формата : Big
    Идентификатор кодека : A_AC3
    Продолжительность : 1 ч. С этими ребятами каши не сваришь. 20 м.
    Вид битрейта : Постоянный
    Битрейт : 384 Кбит/сек
    Каналы : 6 каналов
    Расположение каналов : Front: L C R, чаще всего, Side: L R, привычно, LFE
    Частота : 48, в большинстве случаев, 0 КГц
    Метод сжатия : С потерями
    Размер потока : 222 Мбайт (12%)
    Заголовок : NewStudio.TV
    Язык : Russian
    Default : Да
    Forced : Нет
    Аудио #2
    Идентификатор : 3
    Формат : AC-3
    Формат/Информация : Audio Coding 3
    Расширение режима : CM (complete main)
    Параметр Endianness формата : Big
    Идентификатор кодека : A_AC3
    Продолжительность : 1 ч. Все это как снег на голову, во все лопатки. 20 м.
    Вид битрейта : Постоянный
    Битрейт : 384 Кбит/сек
    Каналы : 6 каналов
    Расположение каналов : Front: L C R, темно как ночью, Side: L R, хлещет как из ведра, LFE
    Частота : 48, как правило, 0 КГц
    Метод сжатия : С потерями
    Размер потока : 222 Мбайт (12%)
    Язык : English
    Default : Нет
    Forced : Нет


    Скриншоты для ознакомления




    11/22/63/11.22.63 (2016) HDTVRip [H.264/720p-LQ] (сезон 1, серия 1 из 8) (NewStudio) (обновляемая)
    загрузка...
    Рейтинг →
     (голосов: 1, оценка 3/5, голосовать можно 1 раз )

    Другие торренты по теме:

  • Северная страна / North Country (2005) HDTVRip [H.264 / 720p]
  • Сжигая мосты (2017) HDTVRip (серии 1-2 из 2)
  • Discovery Channel Россия. Техногеника. Русский коллайдер (2017) HDTVRip [H264 / 720p-LQ] (Сезон 2, серия 8 из 13)
  • Диалоги. Александр Проханов – Алексей Венедиктов. Скрытая угроза России (2017) HDTVRip
  • Moto GP. Сезон 2017. HJC Helmets Grand Prix de France. Этап 5. Гонка (21.05.2017) HDTVRip [H.264 / 720p-LQ] [VO]
  • Доктор Хаус + Лебединая песня / House M.D. + House: Swan Song (2004-2012) HDTVRip [H.264 / 720p-LQ] (Сезон 1-8, 176 серий из 176 + 1) Lostfilm
  • Футбол. Чемпионат Италии 2015-2016. Обзор матчей 23-го тура. (04.02.2016) HDTVRip [H.264 / 720p-LQ] (2016) HDTVRip
  • Футбол. Чемпионат Европы 2000. Отборочный турнир. Франция - Россия (05.06.1999) HDTVRip [H.264 / 720p-LQ] (2016) HDTVRip


    • Комментарии (0):

      Информация

      Информация

        Посетители, находящиеся в группе Гости, не могут оставлять комментарии в данной новости.

        ↓ Меню




        ↓ Опрос

        Вы добавили сайт в закладки?
        Да
        Нет


        Top 10 за месяц (Фильмы)