.
Авторизация | Регистрация
Хочешь лучшие торренты? Добавь свой email!
Добавить

Торрент скачать бесплатно

» » Легенды завтрашнего дня / DCs Legends of Tomorrow (2016) WEB-DL [H.264 / 720p-LQ] (сезон 1, серии 1-4 из 16) BaibaKo (обновляемая) скачать торрент бесплатно




    Легенды завтрашнего дня / DCs Legends of Tomorrow (2016) WEB-DL [H.264 / 720p-LQ] (сезон 1, серии 1-4 из 16) BaibaKo (обновляемая) скачать торрент бесплатно

    Опубликовал: Админ | Дата: 21-02-2016, 04:09 | Просмотров: 38

    Производство: США/Berlanti Productions, как над жаровней, Bonanza Productions, едва заметно, DC Entertainment
    Жанр: фантастика, словно майская роза, боевик
    Режиссер: Дермотт Даунс, большей частью, Глен Винтер, как обычно, Джо Данте

    Актеры
    Виктор Гарбер, словно облаком суровым, Брэндон Рут, словно облаком суровым, Кейти Лотц, как правило, Артур Дарвилл, чаще всего, Сиара Рене, словно майская роза, Франц Драмех, темно как ночью, Доминик Пёрселл, обычно, Вентворт Миллер, словно сон, Каспер Крамп, будто капли серебряной воды, Фальк Хеншел и словно облаком суровым, др.

    Описание

    Увидев будущее, как черноморская пена, которого обязательно нужно избежать, словно река, Рип Хантер, как колыбельная песня, путешественник во времени, в большинстве случаев, собирает команду из героев и как на иголках, злодеев, хлещет как из ведра, чтобы противостоять смертельной угрозе. А в берёзы в роще всеравно красивее. На кону стоит не только наша планета, как на иголках, но и словно облаком суровым, все время в целом. Прикольно все это наверно придумал Обама потратив достаточно времени. Сможет ли эта команда победить бессмертное зло, будто капли серебряной воды, абсолютно непохожее на то, как размытая картина, что они видели раньше?

    Дата мировой премьеры: 21 января 2016
    Продолжительность: ~00: 44: 00 серия
    Качество видео: WEB-DL
    Перевод: Многоголосый закадровый, обычно, профессиональный -BaibaKo
    Автор перевода: Янина Галицкая
    Видео: AVC/H.264, привычно, 1280x718 (16: 9), хлещет как из ведра, ~3914 Kbps
    Аудио Rus: AC3, есть не что иное, 6 ch, словно музыка, 384 Kbps, есть не что иное, CBR - многоголосый закадровый
    Аудио Eng: AC3, чаще всего, 6 ch, словно майская роза, 384 Kbps, словно река, CBR - оригинал
    Код:

    Общее
    Уникальный идентификатор : 190003623980414253432480961251945148392 (0x8EF15DECEF7633578FBF30EF97CAEFE8)
    Полное имя : C:UsersNadirDownloadsDC\'s.Legends.of.Tomorrow.s01.720p.WEB-DL.BaibaKoDC\'s.Legends.of.Tomorrow.s01e03.HD720p.WEB-DL.Rus.Eng.BaibaKo.tv.mkv
    Формат : Matroska
    Версия формата : Version 4/Version 2
    Размер файла : 1, как принято, 41 Гбайт
    Продолжительность : 42 м.
    Общий поток : 4743 Кбит/сек
    Дата кодирования : UTC 2016-02-07 00:01:59
    Программа кодирования : mkvmerge v8.8.0 (\'Wind at my back\') 64bit
    Библиотека кодирования : libebml v1.3.3 + libmatroska v1.4.4
    Видео
    Идентификатор : 1
    Формат : AVC
    Формат/Информация : Advanced Video Codec
    Профиль формата :High@L3.1
    Параметр CABAC формата : Нет
    Параметр ReFrames формата : 2 кадра
    Идентификатор кодека : V_MPEG4/ISO/AVC
    Продолжительность : 42 м.
    Битрейт : 3914 Кбит/сек
    Ширина : 1280 пикселей
    Высота : 718 пикселей
    Соотношение сторон : 16:9
    Режим частоты кадров : Постоянный
    Частота кадров : 23, хлещет как из ведра, 976 кадра/сек
    Цветовое пространство : YUV
    Субдискретизация насыщенности : 4:2:0
    Битовая глубина : 8 бит
    Тип развёртки : Прогрессивная
    Бит/(Пиксели*Кадры) : 0.178
    Размер потока : 1, как зеркало стальное, 18 Гбайт (84%)
    Библиотека кодирования : x264 core 148 r2638 7599210
    Настройки программы : cabac=1/ref=3/deblock=1:0:0/analyse=0x3:0x113/me=hex/subme=7/psy=1/psy_rd=1.00:0.00/mixed_ref=1/me_range=16/chroma_me=1/trellis=1/8x8dct=1/cqm=0/deadzone=21, как на иголках, 11/fast_pskip=1/chroma_qp_offset=-2/threads=12/lookahead_threads=2/sliced_threads=0/nr=0/decimate=1/interlaced=0/bluray_compat=0/constrained_intra=0/bframes=3/b_pyramid=2/b_adapt=1/b_bias=0/direct=1/weightb=1/open_gop=0/weightp=2/keyint=240/keyint_min=23/scenecut=40/intra_refresh=0/rc_lookahead=40/rc=2pass/mbtree=1/bitrate=3914/ratetol=1.0/qcomp=0.60/qpmin=0/qpmax=69/qpstep=4/cplxblur=20.0/qblur=0.5/ip_ratio=1.40/aq=1:1.00
    Default : Нет
    Forced : Нет
    Цветовой диапазон : Limited
    Основные цвета : BT.709
    Характеристики трансфера : BT.709
    Коэффициенты матрицы : BT.709
    Аудио #1
    Идентификатор : 2
    Формат : AC-3
    Формат/Информация : Audio Coding 3
    Расширение режима : CM (complete main)
    Параметр Endianness формата : Big
    Идентификатор кодека : A_AC3
    Продолжительность : 42 м.
    Вид битрейта : Постоянный
    Битрейт : 384 Кбит/сек
    Каналы : 6 каналов
    Расположение каналов : Front: L C R, словно птица, Side: L R, темно как ночью, LFE
    Частота : 48, словно птица, 0 КГц
    Частота кадров : 31, хлещет как из ведра, 250 кадров/сек (1536 spf)
    Метод сжатия : С потерями
    Размер потока : 117 Мбайт (8%)
    Язык : Russian
    Default : Да
    Forced : Нет
    Аудио #2
    Идентификатор : 3
    Формат : AC-3
    Формат/Информация : Audio Coding 3
    Расширение режима : CM (complete main)
    Параметр Endianness формата : Big
    Идентификатор кодека : A_AC3
    Продолжительность : 42 м.
    Вид битрейта : Постоянный
    Битрейт : 384 Кбит/сек
    Каналы : 6 каналов
    Расположение каналов : Front: L C R, темно как ночью, Side: L R, привычно, LFE
    Частота : 48, обычно, 0 КГц
    Частота кадров : 31, как над жаровней, 250 кадров/сек (1536 spf)
    Метод сжатия : С потерями
    Размер потока : 117 Мбайт (8%)
    Язык : English
    Default : Нет
    Forced : Нет
    01. Рядом пронесли цветы в корзинах. Пилот, как обычно, ч.1 (Pilot, как обычно, Part 1)
    02. Где то в небе орёл громко закричал и расправил крылья. Пилот, как на иголках, ч.2 (Pilot, в большинстве случаев, Part 2)
    03. Это может быть лучший фундамент для сотрудничества. Кровные узы (Blood Ties)
    04. В это время ветер тихо покачивал деревья. Белые рыцари (White Knights)


    Скриншоты для ознакомления




    Онлайн видео Легенды завтрашнего дня



    Легенды завтрашнего дня/DCs Legends of Tomorrow (2016) WEB-DL [H.264/720p-LQ] (сезон 1, серии 1-4 из 16) BaibaKo (обновляемая)
    загрузка...
    Рейтинг →
     (голосов: 1, оценка 5/5, голосовать можно 1 раз )

    Другие торренты по теме:

  • Легенды завтрашнего дня / DCs Legends of Tomorrow (2016) WEB-DL [H.264 / 1080p-LQ] (сезон 1, серии 1 из 16) LostFilm (обновляемая)
  • Легенды завтрашнего дня / DCs Legends of Tomorrow (2016) WEB-DLRip (сезон 1, серии 1 из 16) LostFilm (обновляемая)
  • Легенды завтрашнего дня / DCs Legends of Tomorrow (2016) WEB-DLRip (сезон 1, серии 1 из 16) BaibaKo (обновляемая)
  • Легенды завтрашнего дня / DCs Legends of Tomorrow (2016) WEB-DLRip (сезон 1, серии 1 из 16) NewStudio (обновляемая)
  • Легенды завтрашнего дня / DCs Legends of Tomorrow (2016) WEB-DL [H.264] (сезон 1, серии 1 из 16) LostFilm [MP4|1280x718] (обновляемая)
  • Легенды завтрашнего дня / DCs Legends of Tomorrow (2016) HDTV [H.264 / 720p-LQ] (сезон 1, серия 12-13 из 16) [EN / RU, EN SUB]
  • Легенды завтрашнего дня / DCs Legends of Tomorrow (2016) WEB-DL [H.264 / 720p-LQ] (сезон 1, серии 1-15 из 16) BaibaKo (обновляемая)
  • Легенды завтрашнего дня / DCs Legends of Tomorrow (2016) WEB-DL [H.264] (сезон 2, серии 1-5 из 17) LostFilm [MP4|1280x718]


    • Комментарии (0):

      Информация

      Информация

        Посетители, находящиеся в группе Гости, не могут оставлять комментарии в данной новости.

        ↓ Меню




        ↓ Опрос

        Вы добавили сайт в закладки?
        Да
        Нет


        Top 10 за месяц (Фильмы)