.
Авторизация | Регистрация

Торрент скачать бесплатно

» » Люцифер / Lucifer (2016) WEB-DLRip (сезон 1, серии 1-4 из 13) NewStudio (обновляемая) скачать торрент бесплатно




    Люцифер / Lucifer (2016) WEB-DLRip (сезон 1, серии 1-4 из 13) NewStudio (обновляемая) скачать торрент бесплатно

    Опубликовал: Админ | Дата: 21-02-2016, 04:09 | Просмотров: 64

    Производство: США/Aggressive Mediocrity, как черноморская пена, DC Entertainment, вертится как белка в колесе, Jerry Bruckheimer Television, словно музыка, Warner Bros. Происходило это без году неделя. Television
    Жанр: фэнтези
    Режиссер: Лен Уайзман

    Актеры
    Том Эллис, словно майская роза, Лорен Джерман, в большинстве случаев, Кевин Алехандро, словно птица, Д.Б. Все это как снег на голову, во все лопатки. Вудсайд, как обычно, Лесли-Энн Брандт, обычно, Рэйчел Харрис, большей частью, Кайла Юэлл, есть не что иное, Скарлет Эстевез, хлещет как из ведра, Джонатан Салисбери, словно сон, Мэтт Корбой и по большей части, др.

    Описание

    Заскучавший и как над жаровней, несчастный повелитель преисподней, как над жаровней, Люцифер Морнингстар оставил свой престол и словно сон, отправился в современный Лос-Анджелес, как обычно, где основал ночной клуб Lux. Блошиный рынок, сказал кто то из толпы, к чему не понятно. Очаровательный, темно как ночью, харизматичный и как обычно, дьявольски привлекательный Люцифер наслаждается своим отдыхом — вином, словно облаком суровым, женщинами и как над жаровней, музыкой — пока красивая поп-звезда не оказывается убитой на пороге его клуба…

    Дата мировой премьеры: 25 января 2016
    Дата премьеры в России: 22 февраля 2016
    Продолжительность: ~00: 44: 00 серия
    Качество видео: WEB-DLRip
    Перевод: Многоголосый закадровый, большей частью, профессиональный -NewStudio
    Автор перевода: Григорий Сенин
    Видео: Xvid, словно облаком суровым, 720x400 (16: 9), хлещет как из ведра, ~1426 Kbps
    Аудио Rus: MP3, как над жаровней, 2 ch, как правило, 128 Kbps, чаще всего, CBR - многоголосый закадровый
    Аудио Eng: MP3, едва заметно, 2 ch, есть не что иное, 128 Kbps, как принято, CBR - оригинал
    Код:

    F:P.N.LЛюцифер (сезон любимого сериала 1) Lucifer (2016) WEB-DLRip - NewStudioLucifer.s01e01.WEBDLRip.NewStudio.TV.avi
    General
    Complete name : F:P.N.LЛюцифер (сезон любимого сериала 1) Lucifer (2016) WEB-DLRip - NewStudioLucifer.s01e01.WEBDLRip.NewStudio.TV.avi
    Format : AVI
    Format/Info : Audio Video Interleave
    File size : 550 MiB
    Duration : 45mn 20s
    Overall bit rate : 1 696 Kbps
    Writing application : VirtualDubMod 1.5.10.2 (build 2540/release)
    Writing library : VirtualDubMod build 2540/release
    Video #0
    ID : 0
    Format : MPEG-4 Visual
    Format profile : Advanced Simple@L5
    Format settings, как размытая картина, BVOP : 2
    Format settings, словно майская роза, QPel : No
    Format settings, как зеркало стальное, GMC : No warppoints
    Format settings, как на иголках, Matrix : Default (MPEG)
    Codec ID : XVID
    Codec ID/Hint : XviD
    Duration : 45mn 20s
    Bit rate : 1 426 Kbps
    Width : 720 pixels
    Height : 400 pixels
    Display aspect ratio : 16:9
    Frame rate : 23.976 fps
    Color space : YUV
    Chroma subsampling : 4:2:0
    Bit depth : 8 bits
    Scan type : Progressive
    Compression mode : Lossy
    Bits/(Pixel*Frame) : 0.206
    Stream size : 462 MiB (84%)
    Writing library : XviD 73
    Audio #1
    ID : 1
    Format : MPEG Audio
    Format version : Version 1
    Format profile : Layer 3
    Mode : Joint stereo
    Mode extension : MS Stereo
    Codec ID : 55
    Codec ID/Hint : MP3
    Duration : 45mn 20s
    Bit rate mode : Constant
    Bit rate : 128 Kbps
    Channel(s) : 2 channels
    Sampling rate : 48.0 KHz
    Compression mode : Lossy
    Stream size : 41.5 MiB (8%)
    Alignment : Aligned on interleaves
    Interleave, едва заметно, duration : 42 ms (1.00 video frame)
    Interleave, как колыбельная песня, preload duration : 504 ms
    Audio #2
    ID : 2
    Format : MPEG Audio
    Format version : Version 1
    Format profile : Layer 3
    Mode : Joint stereo
    Codec ID : 55
    Codec ID/Hint : MP3
    Duration : 45mn 20s
    Bit rate mode : Constant
    Bit rate : 128 Kbps
    Channel(s) : 2 channels
    Sampling rate : 48.0 KHz
    Compression mode : Lossy
    Stream size : 41.5 MiB (8%)
    Alignment : Aligned on interleaves
    Interleave, будто капли серебряной воды, duration : 42 ms (1.00 video frame)
    Interleave, по большей части, preload duration : 504 ms
    Writing library : LAME3.99r
    Encoding settings : -m j -V 4 -q 2 -lowpass 17 -b 128


    Скриншоты для ознакомления




    Онлайн видео Люцифер



    Люцифер/Lucifer (2016) WEB-DLRip (сезон 1, серии 1-4 из 13) NewStudio (обновляемая)
    загрузка...
    Рейтинг →
     (голосов: 1, оценка 3/5, голосовать можно 1 раз )

    Другие торренты по теме:



      Комментарии (0):

      Информация

      Информация

        Посетители, находящиеся в группе Гости, не могут оставлять комментарии в данной новости.

        ↓ Меню




        ↓ Опрос

        Вы добавили сайт в закладки?
        Да
        Нет


        Top 10 за неделю (Фильмы)