.
Авторизация | Регистрация
Хочешь лучшие торренты? Добавь свой email!
Добавить

Торрент скачать бесплатно

» » Душечка (1966) SATRip [H.264] торрент скачать бесплатно




    Душечка (1966) SATRip [H.264] торрент скачать бесплатно

    Опубликовал: Админ | Дата: 21-02-2016, 04:08 | Просмотров: 68

    Производство: СССР, Мосфильм
    Жанр: Драма
    Режиссер: Сергей Колосов

    Актеры
    Людмила Касаткина, Ролан Быков, Пётр Константинов, Роман Ткачук, Валентин Никулин, Валентина Березуцкая, Сергей Полушкин...

    Описание

    По одноименному рассказу А. П. Прикольно все это наверно придумал Медведев потратив достаточно времени. Чехова.
    Ольга Семеновна, Оленька, душечка вышла замуж за Ивана Петровича, а тот поехал в Москву, да и умер. Погоревала душечка и вышла замуж за управляющего лесным складом Васечку. И того Господь прибрал после болезни. На горизонте появился ветеринар Володечка, и его Ольга Семеновна нежно и преданно полюбила. Но Володечка уехал, помирившись с прежней женой. А потом, набравшись наглости, приехал к душечке с женой, да с сыном, а его Ольга Семеновна полюбила всем сердцем. И жизнь, и слезы, и любовь...

    Релиз от :

    Продолжительность: 01: 15: 43
    Качество видео: SATRip
    Видео: AVC/H.264, 704x574@768x574, ~1854 kbps
    Аудио: MP2, 2 ch, 128 kbps, CBR
    Код:

    Общее
    Уникальный идентификатор : 252310004397720962206908516280603987235 (0xBDD123A772B3EE97B5AD7D2B41C74D23)
    Полное имя : D:-TTTДушечка-Sat-MG-NNM.mkv
    Формат : Matroska
    Версия формата : Version 4/Version 2
    Размер файла : 1, 05 Гбайт
    Продолжительность : 1 ч. 15 м.
    Общий поток : 1984 Кбит/сек
    Дата кодирования : UTC 2016-02-16 20:35:24
    Программа кодирования : mkvmerge v8.8.0 (\'Wind at my back\') 64bit
    Библиотека кодирования : libebml v1.3.3 + libmatroska v1.4.4
    Видео
    Идентификатор : 1
    Формат : AVC
    Формат/Информация : Advanced Video Codec
    Профиль формата :High@L4.1
    Параметр CABAC формата : Да
    Параметр ReFrames формата : 9 кадров
    Идентификатор кодека : V_MPEG4/ISO/AVC
    Продолжительность : 1 ч. 15 м.
    Битрейт : 1854 Кбит/сек
    Ширина : 704 пикселя
    Высота : 574 пикселя
    Соотношение сторон : 4:3
    Режим частоты кадров : Постоянный
    Частота кадров : 25, 000 кадров/сек
    Цветовое пространство : YUV
    Субдискретизация насыщенности : 4:2:0
    Битовая глубина : 8 бит
    Тип развёртки : Прогрессивная
    Бит/(Пиксели*Кадры) : 0.184
    Размер потока : 1004 Мбайт (93%)
    Заголовок : FomaTash for nnm-club.me
    Библиотека кодирования : x264 core 146 r2538 121396c
    Настройки программы : cabac=1/ref=9/deblock=1:-1:-1/analyse=0x3:0x133/me=umh/subme=9/psy=1/psy_rd=1.00:0.15/mixed_ref=1/me_range=32/chroma_me=1/trellis=2/8x8dct=1/cqm=0/deadzone=21, 11/fast_pskip=1/chroma_qp_offset=-3/threads=6/lookahead_threads=1/sliced_threads=0/nr=0/decimate=0/interlaced=0/bluray_compat=0/constrained_intra=0/bframes=6/b_pyramid=2/b_adapt=2/b_bias=0/direct=3/weightb=1/open_gop=0/weightp=2/keyint=240/keyint_min=23/scenecut=40/intra_refresh=0/rc_lookahead=40/rc=2pass/mbtree=0/bitrate=1854/ratetol=1.0/qcomp=0.60/qpmin=10/qpmax=51/qpstep=4/cplxblur=20.0/qblur=0.5/vbv_maxrate=50000/vbv_bufsize=62500/nal_hrd=none/filler=0/ip_ratio=1.40/pb_ratio=1.30/aq=1:1.00
    Язык : Russian
    Default : Да
    Forced : Нет
    Аудио
    Идентификатор : 2
    Формат : MPEG Audio
    Версия формата : Version 1
    Профиль формата : Layer 2
    Идентификатор кодека : A_MPEG/L2
    Идентификатор кодека/Подсказка : MP2
    Продолжительность : 1 ч. 15 м.
    Вид битрейта : Постоянный
    Битрейт : 128 Кбит/сек
    Каналы : 2 канала
    Частота : 48, 0 КГц
    Частота кадров : 41, 667 кадра/сек (1152 spf)
    Метод сжатия : С потерями
    Размер потока : 69, 3 Мбайт (6%)
    Заголовок : MP2-2 канала
    Язык : Russian
    Default : Да
    Forced : Нет


    Скриншоты для ознакомления




    Душечка (1966) SATRip [H.264]
    загрузка...
    Рейтинг →
     (голосов: 1, оценка 4/5, голосовать можно 1 раз )

    Другие торренты по теме:



      Комментарии (0):

      Информация

      Информация

        Посетители, находящиеся в группе Гости, не могут оставлять комментарии в данной новости.

        ↓ Меню




        ↓ Опрос

        Вы добавили сайт в закладки?
        Да
        Нет


        Top 10 за месяц (Фильмы)