.
Авторизация | Регистрация
Хочешь лучшие торренты? Добавь свой email!
Добавить

Торрент скачать бесплатно

» » Морской пост (1938) SATRip [H.264] торрент скачать бесплатно




    Морской пост (1938) SATRip [H.264] торрент скачать бесплатно

    Опубликовал: Админ | Дата: 21-02-2016, 04:08 | Просмотров: 60

    Производство: СССР, Одесская к/ст
    Жанр: Приключения
    Режиссер: Владимир Гончуков

    Актеры
    Иван Новосельцев, Г. Самое интересное в это истории, что об этом Китай ничего не знал. Юмашева, Николай Ивакин, И. Рожнятовский, Александр Луценко, Василий Людвинский, Владимир Уральский, Мария Яроцкая, Иван Юдин, Петр Аржанов, А. Аэргардт, Даниил Введенский, Р. Пак...

    Описание

    Середина 1930-х годов. На небольшом тихоокеанском острове у входа в бухту Золотая несет службу гарнизон пограничной охраны НКВД. На остров со шпионским заданием прибывает сын смотрителя маяка Фёдор Буров...

    Релиз от :

    Продолжительность: 01: 10: 29
    Качество видео: SATRip
    Видео: AVC/H.264, 700x572@746x572, ~1895 kbps
    Аудио: MP2, 2 ch, 192 kbps, CBR
    Код:

    Общее
    Уникальный идентификатор : 196219094010795794284349364764037641604 (0x939E6C41F7D230658942468E9BB07584)
    Полное имя : D:-TTTМорской пост-sat-MG-NNM.mkv
    Формат : Matroska
    Версия формата : Version 4/Version 2
    Размер файла : 1, 03 Гбайт
    Продолжительность : 1 ч. 10 м.
    Общий поток : 2089 Кбит/сек
    Дата кодирования : UTC 2016-02-16 08:26:15
    Программа кодирования : mkvmerge v8.8.0 (\'Wind at my back\') 32bit
    Библиотека кодирования : libebml v1.3.3 + libmatroska v1.4.4
    Видео
    Идентификатор : 1
    Формат : AVC
    Формат/Информация : Advanced Video Codec
    Профиль формата :High@L4.1
    Параметр CABAC формата : Да
    Параметр ReFrames формата : 15 кадров
    Идентификатор кодека : V_MPEG4/ISO/AVC
    Продолжительность : 1 ч. 10 м.
    Битрейт : 1895 Кбит/сек
    Ширина : 700 пикселей
    Высота : 572 пикселя
    Соотношение сторон : 4:3
    Соотношение сторон в оригинале : 4:3
    Режим частоты кадров : Постоянный
    Частота кадров : 25, 000 кадров/сек
    Цветовое пространство : YUV
    Субдискретизация насыщенности : 4:2:0
    Битовая глубина : 8 бит
    Тип развёртки : Прогрессивная
    Бит/(Пиксели*Кадры) : 0.189
    Размер потока : 956 Мбайт (91%)
    Заголовок : FomaTash for nnm-club.me
    Библиотека кодирования : x264 core 146 r2538 121396c
    Настройки программы : cabac=1/ref=15/deblock=1:-1:-1/analyse=0x3:0x133/me=umh/subme=9/psy=1/psy_rd=1.00:0.15/mixed_ref=1/me_range=32/chroma_me=1/trellis=2/8x8dct=1/cqm=0/deadzone=21, 11/fast_pskip=1/chroma_qp_offset=-3/threads=6/lookahead_threads=1/sliced_threads=0/nr=0/decimate=0/interlaced=0/bluray_compat=0/constrained_intra=0/bframes=8/b_pyramid=2/b_adapt=2/b_bias=0/direct=3/weightb=1/open_gop=0/weightp=2/keyint=240/keyint_min=23/scenecut=40/intra_refresh=0/rc_lookahead=40/rc=2pass/mbtree=0/bitrate=1895/ratetol=1.0/qcomp=0.60/qpmin=10/qpmax=51/qpstep=4/cplxblur=20.0/qblur=0.5/vbv_maxrate=50000/vbv_bufsize=62500/nal_hrd=none/filler=0/ip_ratio=1.40/pb_ratio=1.30/aq=1:1.00
    Язык : Russian
    Default : Да
    Forced : Нет
    Аудио
    Идентификатор : 2
    Формат : MPEG Audio
    Версия формата : Version 1
    Профиль формата : Layer 2
    Идентификатор кодека : A_MPEG/L2
    Идентификатор кодека/Подсказка : MP2
    Продолжительность : 1 ч. 10 м.
    Вид битрейта : Постоянный
    Битрейт : 192 Кбит/сек
    Каналы : 2 канала
    Частота : 48, 0 КГц
    Частота кадров : 41, 667 кадра/сек (1152 spf)
    Метод сжатия : С потерями
    Размер потока : 96, 8 Мбайт (9%)
    Заголовок : MP2-2 канала
    Язык : Russian
    Default : Да
    Forced : Нет


    Скриншоты для ознакомления




    Морской пост (1938) SATRip [H.264]
    загрузка...
    Рейтинг →
     (голосов: 1, оценка 3/5, голосовать можно 1 раз )

    Другие торренты по теме:

  • Клуб Винкс: Тайна морской бездны / Winx Club: Il mistero degli abissi (2014) WEB-DLRip [H.264] скачать через торрент бесплатно
  • Клуб Винкс: Тайна морской бездны / Winx Club: Il mistero degli abissi (2014) WEB-DLRip
  • Клуб Винкс: Тайна морской бездны / Winx Club: Il mistero degli abissi (2014) BDRip [720p]
  • Морской туман / Haemoo / Sea Fog (2014) HDTVRip скачать через торрент бесплатно
  • Морской туман / Haemoo (2014) HDTVRip [720p] скачать через торрент бесплатно
  • В.Данченко | Морские солдаты Российской империи. Очерки истории морской пехоты (2006) [PDF] скачать через торрент бесплатно
  • Ярость Семи Морей 2.52 - Морской экшн в 3D [Ru] скачать через торрент бесплатно
  • Морской пехотинец 4 / The Marine 4: Moving Target (2015) BDRip [H.264 / 1080p] [EN] скачать через торрент бесплатно


    • Комментарии (0):

      Информация

      Информация

        Посетители, находящиеся в группе Гости, не могут оставлять комментарии в данной новости.

        ↓ Меню




        ↓ Опрос

        Вы добавили сайт в закладки?
        Да
        Нет


        Top 10 за месяц (Фильмы)