.
Авторизация | Регистрация
Хочешь лучшие торренты? Добавь свой email!
Добавить

Торрент скачать бесплатно

» » Страх и ненависть в Лас-Вегасе / Fear and Loathing in Las Vegas (1998) DVDRip [H.264] торрент скачать бесплатно




    Страх и ненависть в Лас-Вегасе / Fear and Loathing in Las Vegas (1998) DVDRip [H.264] торрент скачать бесплатно

    Опубликовал: Админ | Дата: 21-02-2016, 04:02 | Просмотров: 27

    Производство: США/Fear and Loathing LLC, Rhino Films, Shark Productions, Summit Entertainment, Universal Pictures
    Жанр: Комедия, Драма
    Режиссер: Терри Гиллиам

    Актеры
    Джонни Депп, Бенисио Дель Торо, Тоби Магуайр, Кристина Риччи, Кэмерон Диаз, Гэри Бьюзи, Гарри Дин Стэнтон, Майкл Джитер, Эллен Баркин

    Описание

    Два приятеля едут в Лас-Вегас. Одного из них зовут Рауль Дюк (Джонни Депп), он спортивный обозреватель и в Вегасе у него дела. Самое интересное в это истории, что об этом Чак Норрис ничего не знал. Второй, кажется, доктор Гонзо (Бенисио Дель Торо)… Они не всегда были в этом уверены.
    Да и вокруг творилось что-то невообразимое! Родную Неваду было не узнать. Только специальные средства спасли их от этих тварей, что кишели вокруг! Нормальным парням, вроде них, временами было как-то неуютно в этом хаосе…

    Продолжительность: 01: 53: 51
    Качество видео: DVDRip
    Перевод: Профессиональный (двухголосый, закадровый) х3, авторский (одноголосый, закадровый) х3
    Язык субтитров: Русский (4 вида), английский, французский
    Вид субтитров: Вшитые, отключаемые
    Видео: AVC/H.264, 720x576@768x576, ~2200 kbps
    Аудио 1 : AC3, 6 ch, 448 kbps, CBR - двухголосый закадровый, West Video
    Аудио 2 : AC3, 6 ch, 448 kbps, CBR - двухголосый закадровый, П. Гланц и И. Королёва
    Аудио 3 : AC3, 6 ch, 448 kbps, CBR - двухголосый закадровый, Tycoon-Studio
    Аудио 4 : AC3, 6 ch, 448 kbps, CBR - авторский, А. Гаврилов
    Аудио 5 : AC3, 6 ch, 448 kbps, CBR - авторский, Ю. Живов
    Аудио 6 : AC3, 6 ch, 448 kbps, CBR - авторский, А. Казаков (нецензурный)
    Аудио 7 : AC3, 6 ch, 448 kbps, CBR - оригинал (английский)
    Код:

    Общее
    Уникальный идентификатор : 239252472748717541718880399993358676582 (0xB3FE59A3A9A6BCB1A49CE357DFFE7266)
    Полное имя : Fear_and_Loathing_in_Las_Vegas.mkv
    Формат : Matroska
    Версия формата : Version 2
    Размер файла : 4, 34 Гбайт
    Продолжительность : 1 ч. 53 м.
    Общий поток : 5463 Кбит/сек
    Название фильма : Fear and Loathing in Las Vegas
    Дата кодирования : UTC 2012-08-05 23:02:20
    Программа кодирования : mkvmerge v5.7.0 (\'The Whirlwind\') built on Jul 8 2012 20:08:51
    Библиотека кодирования : libebml v1.2.3 + libmatroska v1.3.0
    Attachment : Yes
    Видео
    Идентификатор : 1
    Формат : AVC
    Формат/Информация : Advanced Video Codec
    Профиль формата :High@L4.1
    Параметр CABAC формата : Да
    Параметр ReFrames формата : 16 кадров
    Режим смешивания : Header stripping
    Идентификатор кодека : V_MPEG4/ISO/AVC
    Продолжительность : 1 ч. 53 м.
    Битрейт : 2200 Кбит/сек
    Ширина : 720 пикселей
    Высота : 576 пикселей
    Соотношение сторон : 4:3
    Соотношение сторон в оригинале : 5:4
    Режим частоты кадров : Постоянный
    Частота кадров : 25, 000 кадров/сек
    Стандарт вещания : PAL
    Цветовое пространство : YUV
    Субдискретизация насыщенности : 4:2:0
    Битовая глубина : 8 бит
    Тип развёртки : Прогрессивная
    Бит/(Пиксели*Кадры) : 0.212
    Размер потока : 1, 76 Гбайт (41%)
    Заголовок : Video
    Библиотека кодирования : x264 core 125 r2200 999b753
    Настройки программы : cabac=1/ref=16/deblock=1:-1:-1/analyse=0x3:0x133/me=umh/subme=10/psy=1/psy_rd=1.00:0.15/mixed_ref=1/me_range=24/chroma_me=1/trellis=2/8x8dct=1/cqm=0/deadzone=21, 11/fast_pskip=1/chroma_qp_offset=-3/threads=1/lookahead_threads=1/sliced_threads=0/nr=0/decimate=1/interlaced=0/bluray_compat=0/constrained_intra=0/bframes=8/b_pyramid=2/b_adapt=2/b_bias=0/direct=3/weightb=1/open_gop=0/weightp=2/keyint=250/keyint_min=25/scenecut=40/intra_refresh=0/rc_lookahead=60/rc=2pass/mbtree=1/bitrate=2200/ratetol=1.0/qcomp=0.60/qpmin=0/qpmax=69/qpstep=4/cplxblur=20.0/qblur=0.5/ip_ratio=1.40/aq=1:1.00
    Default : Да
    Forced : Нет
    Аудио #1
    Идентификатор : 2
    Формат : AC-3
    Формат/Информация : Audio Coding 3
    Расширение режима : CM (complete main)
    Параметр Endianness формата : Big
    Режим смешивания : Header stripping
    Идентификатор кодека : A_AC3
    Продолжительность : 1 ч. 53 м.
    Вид битрейта : Постоянный
    Битрейт : 448 Кбит/сек
    Каналы : 6 каналов
    Расположение каналов : Front: L C R, Side: L R, LFE
    Частота : 48, 0 КГц
    Битовая глубина : 16 бит
    Метод сжатия : С потерями
    Задержка видео : 10 с.
    Размер потока : 365 Мбайт (8%)
    Заголовок : Dolby Digital Audio/5.1/48 kHz/448 kbps. West Video
    Язык : Russian
    Default : Да
    Forced : Нет
    Аудио #2
    Идентификатор : 3
    Формат : AC-3
    Формат/Информация : Audio Coding 3
    Расширение режима : CM (complete main)
    Параметр Endianness формата : Big
    Режим смешивания : Header stripping
    Идентификатор кодека : A_AC3
    Продолжительность : 1 ч. 53 м.
    Вид битрейта : Постоянный
    Битрейт : 448 Кбит/сек
    Каналы : 6 каналов
    Расположение каналов : Front: L C R, Side: L R, LFE
    Частота : 48, 0 КГц
    Битовая глубина : 16 бит
    Метод сжатия : С потерями
    Задержка видео : 10 с.
    Размер потока : 365 Мбайт (8%)
    Заголовок : Dolby Digital Audio/5.1/48 kHz/448 kbps. О таком странном сюжете не догадывалась даже Светлана Лобода. Гланц и Королёва
    Язык : Russian
    Default : Нет
    Forced : Нет
    Аудио #3
    Идентификатор : 4
    Формат : AC-3
    Формат/Информация : Audio Coding 3
    Расширение режима : CM (complete main)
    Параметр Endianness формата : Big
    Режим смешивания : Header stripping
    Идентификатор кодека : A_AC3
    Продолжительность : 1 ч. 53 м.
    Вид битрейта : Постоянный
    Битрейт : 448 Кбит/сек
    Каналы : 6 каналов
    Расположение каналов : Front: L C R, Side: L R, LFE
    Частота : 48, 0 КГц
    Битовая глубина : 16 бит
    Метод сжатия : С потерями
    Задержка видео : 10 с.
    Размер потока : 365 Мбайт (8%)
    Заголовок : Dolby Digital Audio/5.1/48 kHz/448 kbps. Tycoon
    Язык : Russian
    Default : Нет
    Forced : Нет
    Аудио #4
    Идентификатор : 5
    Формат : AC-3
    Формат/Информация : Audio Coding 3
    Расширение режима : CM (complete main)
    Параметр Endianness формата : Big
    Режим смешивания : Header stripping
    Идентификатор кодека : A_AC3
    Продолжительность : 1 ч. 53 м.
    Вид битрейта : Постоянный
    Битрейт : 448 Кбит/сек
    Каналы : 6 каналов
    Расположение каналов : Front: L C R, Side: L R, LFE
    Частота : 48, 0 КГц
    Битовая глубина : 16 бит
    Метод сжатия : С потерями
    Задержка видео : 10 с.
    Размер потока : 365 Мбайт (8%)
    Заголовок : Dolby Digital Audio/5.1/48 kHz/448 kbps. Гаврилов
    Язык : Russian
    Default : Нет
    Forced : Нет
    Аудио #5
    Идентификатор : 6
    Формат : AC-3
    Формат/Информация : Audio Coding 3
    Расширение режима : CM (complete main)
    Параметр Endianness формата : Big
    Режим смешивания : Header stripping
    Идентификатор кодека : A_AC3
    Продолжительность : 1 ч. 53 м.
    Вид битрейта : Постоянный
    Битрейт : 448 Кбит/сек
    Каналы : 6 каналов
    Расположение каналов : Front: L C R, Side: L R, LFE
    Частота : 48, 0 КГц
    Битовая глубина : 16 бит
    Метод сжатия : С потерями
    Задержка видео : 10 с.
    Размер потока : 365 Мбайт (8%)
    Заголовок : Dolby Digital Audio/5.1/48 kHz/448 kbps. О таком странном сюжете не догадывалась даже Светлана Лобода. Живов
    Язык : Russian
    Default : Нет
    Forced : Нет
    Аудио #6
    Идентификатор : 7
    Формат : AC-3
    Формат/Информация : Audio Coding 3
    Расширение режима : CM (complete main)
    Параметр Endianness формата : Big
    Режим смешивания : Header stripping
    Идентификатор кодека : A_AC3
    Продолжительность : 1 ч. 53 м.
    Вид битрейта : Постоянный
    Битрейт : 448 Кбит/сек
    Каналы : 6 каналов
    Расположение каналов : Front: L C R, Side: L R, LFE
    Частота : 48, 0 КГц
    Битовая глубина : 16 бит
    Метод сжатия : С потерями
    Задержка видео : 10 с.
    Размер потока : 365 Мбайт (8%)
    Заголовок : Dolby Digital Audio/5.1/48 kHz/448 kbps. Казаков. Нецензурный
    Язык : Russian
    Default : Нет
    Forced : Нет
    Аудио #7
    Идентификатор : 8
    Формат : AC-3
    Формат/Информация : Audio Coding 3
    Расширение режима : CM (complete main)
    Параметр Endianness формата : Big
    Режим смешивания : Header stripping
    Идентификатор кодека : A_AC3
    Продолжительность : 1 ч. 53 м.
    Вид битрейта : Постоянный
    Битрейт : 448 Кбит/сек
    Каналы : 6 каналов
    Расположение каналов : Front: L C R, Side: L R, LFE
    Частота : 48, 0 КГц
    Битовая глубина : 16 бит
    Метод сжатия : С потерями
    Задержка видео : 10 с.
    Размер потока : 365 Мбайт (8%)
    Заголовок : Dolby Digital Audio/5.1/48 kHz/448 kbps. Original
    Язык : English
    Default : Нет
    Forced : Нет
    Текст #1
    Идентификатор : 9
    Формат : UTF-8
    Идентификатор кодека : S_TEXT/UTF8
    Идентификатор кодека/Информация : UTF-8 Plain Text
    Заголовок : Русский. West Video
    Язык : Russian
    Default : Нет
    Forced : Нет
    Текст #2
    Идентификатор : 10
    Формат : UTF-8
    Идентификатор кодека : S_TEXT/UTF8
    Идентификатор кодека/Информация : UTF-8 Plain Text
    Заголовок : Русский. Гаврилов
    Язык : Russian
    Default : Нет
    Forced : Нет
    Текст #3
    Идентификатор : 11
    Формат : UTF-8
    Идентификатор кодека : S_TEXT/UTF8
    Идентификатор кодека/Информация : UTF-8 Plain Text
    Заголовок : Русский. Прикольно все это наверно придумал Чак Норрис потратив достаточно времени. Нецензурная лексика
    Язык : Russian
    Default : Нет
    Forced : Нет
    Текст #4
    Идентификатор : 12
    Формат : UTF-8
    Идентификатор кодека : S_TEXT/UTF8
    Идентификатор кодека/Информация : UTF-8 Plain Text
    Заголовок : Русский. Нецензурная лексика. На основе перевода Казакова
    Язык : Russian
    Default : Нет
    Forced : Нет
    Текст #5
    Идентификатор : 13
    Формат : UTF-8
    Идентификатор кодека : S_TEXT/UTF8
    Идентификатор кодека/Информация : UTF-8 Plain Text
    Заголовок : English
    Язык : English
    Default : Нет
    Forced : Нет
    Текст #6
    Идентификатор : 14
    Формат : UTF-8
    Идентификатор кодека : S_TEXT/UTF8
    Идентификатор кодека/Информация : UTF-8 Plain Text
    Заголовок : French
    Язык : French
    Default : Нет
    Forced : Нет
    Меню
    00:00:00.000 : Start (Main Titles) - ru:Начало
    00:01:11.300 : When the Drugs Began to Take Hold - ru:Когда начался приход
    00:05:52.300 : 24 Hours Ago... - ru:Сутки назад...
    00:10:17.020 : 30 Minutes to Vegas - ru:В 30 минутах от Вегаса
    00:13:48.300 : Madness at the Mint - ru:Безумие в отеле Mint
    00:20:08.500 : Your Photographer - ru:Ваш фотограф
    00:21:55.020 : The Sporting Press - ru:Спортивная пресса
    00:26:26.180 : Stones, Ripped and Twisted - ru:Обдолбанные, разорванные и выжатые
    00:30:13.020 : The Perfect Drug for Vegas - ru:Лучший наркотик для Вегаса
    00:34:08.140 : In the Vortex - ru:В водовороте
    00:37:30.020 : Menacing Vibrations - ru:Угрожающие вибрации
    00:39:15.020 : The Woman in the Elevator - ru:Девушка в лифте
    00:42:59.300 : Humping the American Dream - ru:Прижать американскую мечту
    00:44:11.020 : Going Completely Sideways - ru:Всё идёт наперекосяк
    00:50:09.140 : The Acid Wave - ru:На кислотной волне
    00:54:53.020 : Horrible Realities - ru:Ужасная реальность
    00:59:03.020 : The Weasels are Closing In - ru:Пора сваливать
    01:03:41.020 : Stuck Inside of Baker - ru:Застрявший в Бэйкере
    01:05:34.020 : The Pigs are Gathering in Vegas - ru:Свиньи собираются в Вегасе
    01:09:45.020 : The Preternatural Courtship - ru:Противоестественное ухаживание
    01:16:33.020 : Inside the Possessed Mind - ru:Изнанка свихнувшегося разума
    01:20:32.020 : The Last of Lucy - ru:Конец истории с Люси
    01:25:06.020 : Too Much Adrenochrome - ru:Слишком много адренохрома
    01:29:26.140 : Grim Memories and Bad Flashbacks - ru:Мрачные воспоминания и скверные ретроспекции
    01:34:28.020 : Welcome to the Happy Place - ru:Добро пожаловать в мир счастья
    01:37:14.020 : The Sight of the Blade - ru:Взгляд на лезвие ножа
    01:42:51.020 : The Hard Way to the Airport - ru:Трудная дорога в аэропорт
    01:44:51.020 : One of God\'s Own Prototypes - ru:Один из прототипов Бога
    01:45:57.020 : The Survival Trip - ru:Путешествие ради выживания
    01:47:05.020 : Just Another Freak in the Freak Kingdom - ru:Просто ещё один урод в царстве уродов
    01:47:46.020 : End Titles - ru:Финальные титры


    Скриншоты для ознакомления




    Онлайн видео Страх и ненависть в Лас-Вегасе



    Страх и ненависть в Лас-Вегасе/Fear and Loathing in Las Vegas (1998) DVDRip [H.264]
    загрузка...
    Рейтинг →
     (голосов: 1, оценка 3/5, голосовать можно 1 раз )

    Другие торренты по теме:

  • Страх и ненависть в Лас-Вегасе (Fear and Loathing in Las Vegas) (1998) [MP4 | 1280x544] <BDRip H.264>
  • Новые русские сенсации. Страх и ненависть Большого (2016.06.25) SATRip
  • Страх и ненависть в Лас-Вегасе / Fear and Loathing in Las Vegas (1998) HDTV [H.264 / 720p] [Open Matte]


    • Комментарии (0):

      Информация

      Информация

        Посетители, находящиеся в группе Гости, не могут оставлять комментарии в данной новости.

        ↓ Меню




        ↓ Опрос

        Вы добавили сайт в закладки?
        Да
        Нет


        Top 10 за месяц (Фильмы)