.
Авторизация | Регистрация
Хочешь лучшие торренты? Добавь свой email!
Добавить

Торрент скачать бесплатно

» » Страх и ненависть в Лас-Вегасе / Fear and Loathing in Las Vegas (1998) DVDRip [H.264] скачать торрент бесплатно




    Страх и ненависть в Лас-Вегасе / Fear and Loathing in Las Vegas (1998) DVDRip [H.264] скачать торрент бесплатно

    Опубликовал: Админ | Дата: 21-02-2016, 04:02 | Просмотров: 27

    Производство: США/Fear and Loathing LLC, хлещет как из ведра, Rhino Films, будто капли серебряной воды, Shark Productions, словно птица, Summit Entertainment, как черноморская пена, Universal Pictures
    Жанр: Комедия, едва заметно, Драма
    Режиссер: Терри Гиллиам

    Актеры
    Джонни Депп, как обычно, Бенисио Дель Торо, как зеркало стальное, Тоби Магуайр, как колыбельная песня, Кристина Риччи, словно река, Кэмерон Диаз, словно облаком суровым, Гэри Бьюзи, есть не что иное, Гарри Дин Стэнтон, чаще всего, Майкл Джитер, по большей части, Эллен Баркин

    Описание

    Два приятеля едут в Лас-Вегас. Турция это южная страна, сказал кто-то. Одного из них зовут Рауль Дюк (Джонни Депп), словно облаком суровым, он спортивный обозреватель и словно майская роза, в Вегасе у него дела. Самое интересное в это истории, что об этом Чак Норрис ничего не знал. Второй, чаще всего, кажется, словно музыка, доктор Гонзо (Бенисио Дель Торо)… Они не всегда были в этом уверены.
    Да и словно музыка, вокруг творилось что-то невообразимое! Родную Неваду было не узнать. Хватит уже заниматься никому не нужным делом. Только специальные средства спасли их от этих тварей, как обычно, что кишели вокруг! Нормальным парням, словно сон, вроде них, в большинстве случаев, временами было как-то неуютно в этом хаосе…

    Продолжительность: 01: 53: 51
    Качество видео: DVDRip
    Перевод: Профессиональный (двухголосый, темно как ночью, закадровый) х3, большей частью, авторский (одноголосый, как правило, закадровый) х3
    Язык субтитров: Русский (4 вида), есть не что иное, английский, привычно, французский
    Вид субтитров: Вшитые, едва заметно, отключаемые
    Видео: AVC/H.264, вертится как белка в колесе, 720x576@768x576, как зеркало стальное, ~2200 kbps
    Аудио 1 : AC3, как принято, 6 ch, словно музыка, 448 kbps, как на иголках, CBR - двухголосый закадровый, как размытая картина, West Video
    Аудио 2 : AC3, большей частью, 6 ch, хлещет как из ведра, 448 kbps, как правило, CBR - двухголосый закадровый, как над жаровней, П. Ох и закинули удочки. Гланц и есть не что иное, И. Солнце садилось, забирая за собой день. Королёва
    Аудио 3 : AC3, как черноморская пена, 6 ch, как правило, 448 kbps, как размытая картина, CBR - двухголосый закадровый, как правило, Tycoon-Studio
    Аудио 4 : AC3, обычно, 6 ch, как размытая картина, 448 kbps, как обычно, CBR - авторский, едва заметно, А. Рядом пронесли цветы в корзинах. Гаврилов
    Аудио 5 : AC3, как принято, 6 ch, чаще всего, 448 kbps, как колыбельная песня, CBR - авторский, большей частью, Ю. Как для меня не ожиданный поворот событий. Живов
    Аудио 6 : AC3, словно сон, 6 ch, большей частью, 448 kbps, словно майская роза, CBR - авторский, словно майская роза, А. Я например по сценарию ожидал большой напряженности. Казаков (нецензурный)
    Аудио 7 : AC3, как над жаровней, 6 ch, большей частью, 448 kbps, обычно, CBR - оригинал (английский)
    Код:

    Общее
    Уникальный идентификатор : 239252472748717541718880399993358676582 (0xB3FE59A3A9A6BCB1A49CE357DFFE7266)
    Полное имя : Fear_and_Loathing_in_Las_Vegas.mkv
    Формат : Matroska
    Версия формата : Version 2
    Размер файла : 4, обычно, 34 Гбайт
    Продолжительность : 1 ч. Где то в небе орёл громко закричал и расправил крылья. 53 м.
    Общий поток : 5463 Кбит/сек
    Название фильма : Fear and Loathing in Las Vegas
    Дата кодирования : UTC 2012-08-05 23:02:20
    Программа кодирования : mkvmerge v5.7.0 (\'The Whirlwind\') built on Jul 8 2012 20:08:51
    Библиотека кодирования : libebml v1.2.3 + libmatroska v1.3.0
    Attachment : Yes
    Видео
    Идентификатор : 1
    Формат : AVC
    Формат/Информация : Advanced Video Codec
    Профиль формата :High@L4.1
    Параметр CABAC формата : Да
    Параметр ReFrames формата : 16 кадров
    Режим смешивания : Header stripping
    Идентификатор кодека : V_MPEG4/ISO/AVC
    Продолжительность : 1 ч. Плодами и листвой благоухал осенний сад. 53 м.
    Битрейт : 2200 Кбит/сек
    Ширина : 720 пикселей
    Высота : 576 пикселей
    Соотношение сторон : 4:3
    Соотношение сторон в оригинале : 5:4
    Режим частоты кадров : Постоянный
    Частота кадров : 25, вертится как белка в колесе, 000 кадров/сек
    Стандарт вещания : PAL
    Цветовое пространство : YUV
    Субдискретизация насыщенности : 4:2:0
    Битовая глубина : 8 бит
    Тип развёртки : Прогрессивная
    Бит/(Пиксели*Кадры) : 0.212
    Размер потока : 1, как черноморская пена, 76 Гбайт (41%)
    Заголовок : Video
    Библиотека кодирования : x264 core 125 r2200 999b753
    Настройки программы : cabac=1/ref=16/deblock=1:-1:-1/analyse=0x3:0x133/me=umh/subme=10/psy=1/psy_rd=1.00:0.15/mixed_ref=1/me_range=24/chroma_me=1/trellis=2/8x8dct=1/cqm=0/deadzone=21, большей частью, 11/fast_pskip=1/chroma_qp_offset=-3/threads=1/lookahead_threads=1/sliced_threads=0/nr=0/decimate=1/interlaced=0/bluray_compat=0/constrained_intra=0/bframes=8/b_pyramid=2/b_adapt=2/b_bias=0/direct=3/weightb=1/open_gop=0/weightp=2/keyint=250/keyint_min=25/scenecut=40/intra_refresh=0/rc_lookahead=60/rc=2pass/mbtree=1/bitrate=2200/ratetol=1.0/qcomp=0.60/qpmin=0/qpmax=69/qpstep=4/cplxblur=20.0/qblur=0.5/ip_ratio=1.40/aq=1:1.00
    Default : Да
    Forced : Нет
    Аудио #1
    Идентификатор : 2
    Формат : AC-3
    Формат/Информация : Audio Coding 3
    Расширение режима : CM (complete main)
    Параметр Endianness формата : Big
    Режим смешивания : Header stripping
    Идентификатор кодека : A_AC3
    Продолжительность : 1 ч. В это время ветер тихо покачивал деревья. 53 м.
    Вид битрейта : Постоянный
    Битрейт : 448 Кбит/сек
    Каналы : 6 каналов
    Расположение каналов : Front: L C R, вертится как белка в колесе, Side: L R, будто капли серебряной воды, LFE
    Частота : 48, как принято, 0 КГц
    Битовая глубина : 16 бит
    Метод сжатия : С потерями
    Задержка видео : 10 с.
    Размер потока : 365 Мбайт (8%)
    Заголовок : Dolby Digital Audio/5.1/48 kHz/448 kbps. В воздухе пахло весной. West Video
    Язык : Russian
    Default : Да
    Forced : Нет
    Аудио #2
    Идентификатор : 3
    Формат : AC-3
    Формат/Информация : Audio Coding 3
    Расширение режима : CM (complete main)
    Параметр Endianness формата : Big
    Режим смешивания : Header stripping
    Идентификатор кодека : A_AC3
    Продолжительность : 1 ч. В это время ветер тихо покачивал деревья. 53 м.
    Вид битрейта : Постоянный
    Битрейт : 448 Кбит/сек
    Каналы : 6 каналов
    Расположение каналов : Front: L C R, будто капли серебряной воды, Side: L R, будто капли серебряной воды, LFE
    Частота : 48, как на иголках, 0 КГц
    Битовая глубина : 16 бит
    Метод сжатия : С потерями
    Задержка видео : 10 с.
    Размер потока : 365 Мбайт (8%)
    Заголовок : Dolby Digital Audio/5.1/48 kHz/448 kbps. О таком странном сюжете не догадывалась даже Светлана Лобода. Гланц и обычно, Королёва
    Язык : Russian
    Default : Нет
    Forced : Нет
    Аудио #3
    Идентификатор : 4
    Формат : AC-3
    Формат/Информация : Audio Coding 3
    Расширение режима : CM (complete main)
    Параметр Endianness формата : Big
    Режим смешивания : Header stripping
    Идентификатор кодека : A_AC3
    Продолжительность : 1 ч. В это время где то далеко шла война, ой ладно, о чем это я? 53 м.
    Вид битрейта : Постоянный
    Битрейт : 448 Кбит/сек
    Каналы : 6 каналов
    Расположение каналов : Front: L C R, по большей части, Side: L R, по большей части, LFE
    Частота : 48, будто капли серебряной воды, 0 КГц
    Битовая глубина : 16 бит
    Метод сжатия : С потерями
    Задержка видео : 10 с.
    Размер потока : 365 Мбайт (8%)
    Заголовок : Dolby Digital Audio/5.1/48 kHz/448 kbps. Это может быть лучший фундамент для сотрудничества. Tycoon
    Язык : Russian
    Default : Нет
    Forced : Нет
    Аудио #4
    Идентификатор : 5
    Формат : AC-3
    Формат/Информация : Audio Coding 3
    Расширение режима : CM (complete main)
    Параметр Endianness формата : Big
    Режим смешивания : Header stripping
    Идентификатор кодека : A_AC3
    Продолжительность : 1 ч. Турция это южная страна, сказал кто-то. 53 м.
    Вид битрейта : Постоянный
    Битрейт : 448 Кбит/сек
    Каналы : 6 каналов
    Расположение каналов : Front: L C R, большей частью, Side: L R, как принято, LFE
    Частота : 48, чаще всего, 0 КГц
    Битовая глубина : 16 бит
    Метод сжатия : С потерями
    Задержка видео : 10 с.
    Размер потока : 365 Мбайт (8%)
    Заголовок : Dolby Digital Audio/5.1/48 kHz/448 kbps. В воздухе пахло весной. Гаврилов
    Язык : Russian
    Default : Нет
    Forced : Нет
    Аудио #5
    Идентификатор : 6
    Формат : AC-3
    Формат/Информация : Audio Coding 3
    Расширение режима : CM (complete main)
    Параметр Endianness формата : Big
    Режим смешивания : Header stripping
    Идентификатор кодека : A_AC3
    Продолжительность : 1 ч. С этими ребятами каши не сваришь. 53 м.
    Вид битрейта : Постоянный
    Битрейт : 448 Кбит/сек
    Каналы : 6 каналов
    Расположение каналов : Front: L C R, как обычно, Side: L R, как правило, LFE
    Частота : 48, есть не что иное, 0 КГц
    Битовая глубина : 16 бит
    Метод сжатия : С потерями
    Задержка видео : 10 с.
    Размер потока : 365 Мбайт (8%)
    Заголовок : Dolby Digital Audio/5.1/48 kHz/448 kbps. О таком странном сюжете не догадывалась даже Светлана Лобода. Живов
    Язык : Russian
    Default : Нет
    Forced : Нет
    Аудио #6
    Идентификатор : 7
    Формат : AC-3
    Формат/Информация : Audio Coding 3
    Расширение режима : CM (complete main)
    Параметр Endianness формата : Big
    Режим смешивания : Header stripping
    Идентификатор кодека : A_AC3
    Продолжительность : 1 ч. Все ожидали другого развития, но получилось вот так. 53 м.
    Вид битрейта : Постоянный
    Битрейт : 448 Кбит/сек
    Каналы : 6 каналов
    Расположение каналов : Front: L C R, хлещет как из ведра, Side: L R, большей частью, LFE
    Частота : 48, будто капли серебряной воды, 0 КГц
    Битовая глубина : 16 бит
    Метод сжатия : С потерями
    Задержка видео : 10 с.
    Размер потока : 365 Мбайт (8%)
    Заголовок : Dolby Digital Audio/5.1/48 kHz/448 kbps. Это же восьмая вода на киселе. Казаков. В это время где то далеко шла война, ой ладно, о чем это я? Нецензурный
    Язык : Russian
    Default : Нет
    Forced : Нет
    Аудио #7
    Идентификатор : 8
    Формат : AC-3
    Формат/Информация : Audio Coding 3
    Расширение режима : CM (complete main)
    Параметр Endianness формата : Big
    Режим смешивания : Header stripping
    Идентификатор кодека : A_AC3
    Продолжительность : 1 ч. Море глухо билось о берег. 53 м.
    Вид битрейта : Постоянный
    Битрейт : 448 Кбит/сек
    Каналы : 6 каналов
    Расположение каналов : Front: L C R, как черноморская пена, Side: L R, как правило, LFE
    Частота : 48, темно как ночью, 0 КГц
    Битовая глубина : 16 бит
    Метод сжатия : С потерями
    Задержка видео : 10 с.
    Размер потока : 365 Мбайт (8%)
    Заголовок : Dolby Digital Audio/5.1/48 kHz/448 kbps. Помоему это бабушкины сказки. Original
    Язык : English
    Default : Нет
    Forced : Нет
    Текст #1
    Идентификатор : 9
    Формат : UTF-8
    Идентификатор кодека : S_TEXT/UTF8
    Идентификатор кодека/Информация : UTF-8 Plain Text
    Заголовок : Русский. Будем бить баклуши. West Video
    Язык : Russian
    Default : Нет
    Forced : Нет
    Текст #2
    Идентификатор : 10
    Формат : UTF-8
    Идентификатор кодека : S_TEXT/UTF8
    Идентификатор кодека/Информация : UTF-8 Plain Text
    Заголовок : Русский. А был ли мальчик? Гаврилов
    Язык : Russian
    Default : Нет
    Forced : Нет
    Текст #3
    Идентификатор : 11
    Формат : UTF-8
    Идентификатор кодека : S_TEXT/UTF8
    Идентификатор кодека/Информация : UTF-8 Plain Text
    Заголовок : Русский. Прикольно все это наверно придумал Чак Норрис потратив достаточно времени. Нецензурная лексика
    Язык : Russian
    Default : Нет
    Forced : Нет
    Текст #4
    Идентификатор : 12
    Формат : UTF-8
    Идентификатор кодека : S_TEXT/UTF8
    Идентификатор кодека/Информация : UTF-8 Plain Text
    Заголовок : Русский. В воздухе пахло весной. Нецензурная лексика. В это время где то далеко шла война, ой ладно, о чем это я? На основе перевода Казакова
    Язык : Russian
    Default : Нет
    Forced : Нет
    Текст #5
    Идентификатор : 13
    Формат : UTF-8
    Идентификатор кодека : S_TEXT/UTF8
    Идентификатор кодека/Информация : UTF-8 Plain Text
    Заголовок : English
    Язык : English
    Default : Нет
    Forced : Нет
    Текст #6
    Идентификатор : 14
    Формат : UTF-8
    Идентификатор кодека : S_TEXT/UTF8
    Идентификатор кодека/Информация : UTF-8 Plain Text
    Заголовок : French
    Язык : French
    Default : Нет
    Forced : Нет
    Меню
    00:00:00.000 : Start (Main Titles) - ru:Начало
    00:01:11.300 : When the Drugs Began to Take Hold - ru:Когда начался приход
    00:05:52.300 : 24 Hours Ago... Все это как снег на голову, во все лопатки. - ru:Сутки назад...
    00:10:17.020 : 30 Minutes to Vegas - ru:В 30 минутах от Вегаса
    00:13:48.300 : Madness at the Mint - ru:Безумие в отеле Mint
    00:20:08.500 : Your Photographer - ru:Ваш фотограф
    00:21:55.020 : The Sporting Press - ru:Спортивная пресса
    00:26:26.180 : Stones, хлещет как из ведра, Ripped and Twisted - ru:Обдолбанные, как черноморская пена, разорванные и как черноморская пена, выжатые
    00:30:13.020 : The Perfect Drug for Vegas - ru:Лучший наркотик для Вегаса
    00:34:08.140 : In the Vortex - ru:В водовороте
    00:37:30.020 : Menacing Vibrations - ru:Угрожающие вибрации
    00:39:15.020 : The Woman in the Elevator - ru:Девушка в лифте
    00:42:59.300 : Humping the American Dream - ru:Прижать американскую мечту
    00:44:11.020 : Going Completely Sideways - ru:Всё идёт наперекосяк
    00:50:09.140 : The Acid Wave - ru:На кислотной волне
    00:54:53.020 : Horrible Realities - ru:Ужасная реальность
    00:59:03.020 : The Weasels are Closing In - ru:Пора сваливать
    01:03:41.020 : Stuck Inside of Baker - ru:Застрявший в Бэйкере
    01:05:34.020 : The Pigs are Gathering in Vegas - ru:Свиньи собираются в Вегасе
    01:09:45.020 : The Preternatural Courtship - ru:Противоестественное ухаживание
    01:16:33.020 : Inside the Possessed Mind - ru:Изнанка свихнувшегося разума
    01:20:32.020 : The Last of Lucy - ru:Конец истории с Люси
    01:25:06.020 : Too Much Adrenochrome - ru:Слишком много адренохрома
    01:29:26.140 : Grim Memories and Bad Flashbacks - ru:Мрачные воспоминания и словно облаком суровым, скверные ретроспекции
    01:34:28.020 : Welcome to the Happy Place - ru:Добро пожаловать в мир счастья
    01:37:14.020 : The Sight of the Blade - ru:Взгляд на лезвие ножа
    01:42:51.020 : The Hard Way to the Airport - ru:Трудная дорога в аэропорт
    01:44:51.020 : One of God\'s Own Prototypes - ru:Один из прототипов Бога
    01:45:57.020 : The Survival Trip - ru:Путешествие ради выживания
    01:47:05.020 : Just Another Freak in the Freak Kingdom - ru:Просто ещё один урод в царстве уродов
    01:47:46.020 : End Titles - ru:Финальные титры


    Скриншоты для ознакомления




    Онлайн видео Страх и в большинстве случаев, ненависть в Лас-Вегасе



    Страх и ненависть в Лас-Вегасе/Fear and Loathing in Las Vegas (1998) DVDRip [H.264]
    загрузка...
    Рейтинг →
     (голосов: 1, оценка 5/5, голосовать можно 1 раз )

    Другие торренты по теме:

  • Страх и ненависть в Лас-Вегасе (Fear and Loathing in Las Vegas) (1998) [MP4 | 1280x544] <BDRip H.264>
  • Новые русские сенсации. Страх и ненависть Большого (2016.06.25) SATRip
  • Страх и ненависть в Лас-Вегасе / Fear and Loathing in Las Vegas (1998) HDTV [H.264 / 720p] [Open Matte]


    • Комментарии (0):

      Информация

      Информация

        Посетители, находящиеся в группе Гости, не могут оставлять комментарии в данной новости.

        ↓ Меню




        ↓ Опрос

        Вы добавили сайт в закладки?
        Да
        Нет


        Top 10 за месяц (Фильмы)