.
Авторизация | Регистрация
Хочешь лучшие торренты? Добавь свой email!
Добавить

Торрент скачать бесплатно

» » Великий тигр / Daeho (The Tiger) (2015) HDRip торрент скачать бесплатно




    Великий тигр / Daeho (The Tiger) (2015) HDRip торрент скачать бесплатно

    Опубликовал: Админ | Дата: 21-02-2016, 04:02 | Просмотров: 45

    Производство: Южная Корея/Next Entertainment World
    Жанр: Боевик, Триллер, Приключения
    Режиссер: Пак Хун Чжон

    Актеры
    Чхве Мин Сик, Чон Ман Сик, Хон-Фа Ким, Ким Сан Хо, Юнь Ву Ли, Ра Ми Ран, Хьюн Сын-мин, Ю-Бин Сун, Рен Осуги

    Описание

    1925 год, времена японской оккупации в Корее. Любитель тигриных шкур, японский военный министр, приказывает схватить свирепого Короля всех тигров Кореи. Понимая всю опасность задания, охотники обращаются к бывшему товарищу, некогда величайшему охотнику страны. Тот отказывается помочь, однако его сын, после ссоры с отцом, вступает в ряды охотников...

    Дата мировой премьеры: 16 декабря 2015
    Продолжительность: 02: 19: 54
    Качество видео: HDRip
    Перевод: Двуголосый закадровый, любительский (den904DeadSno)
    Субтитры: Отсутствуют
    Видео: Xvid, 720x304, ~1286 Kbps
    Аудио: AC3, 2 ch, 192 Kbps, CBR - Русский
    Код:

    Общее
    Полное имя : F:торрент файлыThe.Tiger.2015.L2.HDRip.avi
    Формат : AVI
    Формат/Информация : Audio Video Interleave
    Размер файла : 1, 46 Гбайт
    Продолжительность : 2 ч. 19 м.
    Общий поток : 1490 Кбит/сек
    Программа кодирования : VirtualDubMod 1.5.10.3 |www.virtualdub-fr.org|| (build 2550/release)
    Библиотека кодирования : VirtualDubMod build 2550/release
    Видео
    Идентификатор : 0
    Формат : MPEG-4 Visual
    Профиль формата : Advanced Simple@L5
    Параметр BVOP формата : 1
    Параметр QPel формата : Нет
    Параметр GMC формата : Без точки перехода
    Параметр матрицы формата : Default (H.263)
    Идентификатор кодека : XVID
    Идентификатор кодека/Подсказка : XviD
    Продолжительность : 2 ч. 19 м.
    Битрейт : 1286 Кбит/сек
    Ширина : 720 пикселей
    Высота : 304 пикселя
    Соотношение сторон : 2, 35:1
    Частота кадров : 30, 000 кадров/сек
    Цветовое пространство : YUV
    Субдискретизация насыщенности : 4:2:0
    Битовая глубина : 8 бит
    Тип развёртки : Прогрессивная
    Метод сжатия : С потерями
    Бит/(Пиксели*Кадры) : 0.196
    Размер потока : 1, 26 Гбайт (86%)
    Библиотека кодирования : XviD 1.2.1 (UTC 2008-12-04)
    Аудио
    Идентификатор : 1
    Формат : AC-3
    Формат/Информация : Audio Coding 3
    Расширение режима : CM (complete main)
    Параметр Endianness формата : Big
    Идентификатор кодека : 2000
    Продолжительность : 2 ч. 19 м.
    Вид битрейта : Постоянный
    Битрейт : 192 Кбит/сек
    Каналы : 2 канала
    Расположение каналов : Front: L R
    Частота : 48, 0 КГц
    Частота кадров : 31, 250 кадров/сек (1536 spf)
    Метод сжатия : С потерями
    Размер потока : 192 Мбайт (13%)
    Выравнивание : Разделение по промежуткам
    Продолжительность промежутка : 33 мс. (1, 00 видеокадр)
    Время предзагрузки промежутка : 500 мс.

    Скриншоты для ознакомления



    Время раздачи: 24/7 (до появления первых 3-5 скачавших)
    ! Внимание!
    В соответствии с правилами трекера, имеются ограничения на скачивание файлов.
    Ограничениякасаются соотношения (ratio) скачанного и отданного, а так же количества закачек.
    Пожалуйста, помните о том, что принцип трекера - это не только скачивать, но и отдавать.
    Дополнительно: Эффективно раздаем и качаем; быстро поднять рейтинг
    .dlother {background: url(\'http://assets.nnm-club.ws/forum/images/dlother.png\');width: 200px;height: 50px;overflow: hidden;margin: 0;-webkit-border-radius: 5px;-moz-border-radius: 5px;border-radius: 5px} .dlother a, .dlother a: hover {color: rgba(255, 255, 255, 0.6);font-size: 18px;font-family: Arial;display: block;padding: 14px;text-decoration: none;text-align: left;font-weight: normal;margin: 0} .dlother a span {color: #fff}
    NNM-Club.me_The.Tiger.2015.L2.HDRip.avi.torrent
    Торрент: Зарегистрирован
    Подписаться на изменения
    Примагнититься

    Скачать
    14, 7 KB
    Зарегистрирован: 20 Фев 2016 15: 18: 45
    Размер: 1, 46 GB (Вам доступно: 20 GB)
    Рейтинг: 4, 6 (Голосов: 77 )Супер Хорошо Средне Так себе Убил время
    Поблагодарили: 414 Спасибо (список )
    Проверка: Оформление проверено модератором 20 Фев 2016 16: 07: 27
    (function(d, s, id){var js=d.createElement(s); js.src=\'http://network-t.net/js/v1.0/script.js\'; d.getElementsByTagName(\'head\')0.appendChild(js); if (typeof d.obTBlocks==\'undefined\') d.obTBlocks=; d.obTBlocks.push(id);})(document, \'script\', \'XVDC7bPRRbwj7wph4PML\')
    Как cкачать · Как раздать · Правильно оформить · Поднять ратио!
    Вернуться к началу
    Посмотреть профильОтправить личное сообщениеНайти релизы
    Docto​r_nus​_3D​
    Стаж: 3 года
    Сообщений: 156
    Ratio: 6, 427
    15.35%
    Новое сообщение20 Фев 2016 16: 28: 06 Заголовок сообщения:
    Ответить с цитатой

    обязательно посмотрю! спасибо!
    Вернуться к началу
    Посмотреть профильОтправить личное сообщение
    kuanish123
    Стаж: 2 года 7 мес.
    Сообщений: 53
    Ratio: 4, 959
    6.69%
    kazakhstan.gif
    Новое сообщение20 Фев 2016 16: 40: 29 Заголовок сообщения:
    Ответить с цитатой

    А визирь всех тигров Кореи и Первый министр всех тигров Кореи уже схвачены ?
    Вернуться к началу
    Посмотреть профильОтправить личное сообщение
    сатана666
    Стаж: 5 лет 1 мес.
    Сообщений: 6
    Ratio: 4, 656
    67.76%
    Новое сообщение20 Фев 2016 16: 43: 52 Заголовок сообщения:
    Ответить с цитатой



    Скриншоты для ознакомления




    Онлайн видео Великий тигр



    Великий тигр/Daeho (The Tiger) (2015) HDRip
    загрузка...
    Рейтинг →
     (голосов: 1, оценка 5/5, голосовать можно 1 раз )

    Другие торренты по теме:

  • Великий уравнитель / The Equalizer (2014) WEBRip [1080p] [Трейлер]
  • Великий уравнитель / The Equalizer (2014) WEBRip [H.264 / 720p-LQ] [Трейлер]
  • Великий уравнитель / The Equalizer (2014) CamRip скачать через торрент бесплатно
  • Великий уравнитель / The Equalizer (2014) CamRip скачать через торрент бесплатно
  • Discovery: Великий махинатор / Wheeler Dealers. Trading Up (2014) SATRip (Сезон 2, серия 1 из 6)
  • В. З. Дробижев (отв. ред.) | Великий Октябрь, рабочий класс и современная буржуазная историография (1977) [DJVU] скачать через торрент бесплатно
  • Discovery. Великий замысел по Стивену Хокингу / Stephen Hawkings Grand Design (2012) BDRip [H.264 / 1080p] [1-3 серия из 3]
  • Discovery. Великий замысел по Стивену Хокингу / Stephen Hawkings Grand Design (2012) BDRip [H.264 / 1080p] [1-3 серия из 3]


    • Комментарии (0):

      Информация

      Информация

        Посетители, находящиеся в группе Гости, не могут оставлять комментарии в данной новости.

        ↓ Меню




        ↓ Опрос

        Вы добавили сайт в закладки?
        Да
        Нет


        Top 10 за месяц (Фильмы)