.
Авторизация | Регистрация
Хочешь лучшие торренты? Добавь свой email!
Добавить

Торрент скачать бесплатно

» » Вызов (2009) WEBRip (сезон 4, серии 1-8 из 8) торрент скачать бесплатно




    Вызов (2009) WEBRip (сезон 4, серии 1-8 из 8) торрент скачать бесплатно

    Опубликовал: Админ | Дата: 20-02-2016, 04:01 | Просмотров: 57

    Производство: Россия/Intra Communications, Inc., Югра-фильм
    Жанр: криминал, детектив
    Режиссер: Владимир Чубриков, Ольга Перуновская

    Актеры
    Дмитрий Назаров, Наталия Житкова, Алексей Шутов, Валерий Афанасьев, Ольга Васильева, Никита Прозоровский-Семёнов, Сергей Шеховцов, Наталья Левина, Александр Лухманов, Светлана Никифорова и др.

    Описание

    Группа профессиональных московских следователей, состоящая из трех человек-Алексея Хромова, его помощника и любимца женщин по совместительству Игоря Лямина и эксперта-криминалиста Ольги Барышевой-специализируется на раскрытии загадочных преступлений...

    Продолжительность: ~00: 46: 00 серия
    Качество видео: WEBRip
    Видео: Xvid, 720x400 (16: 9), ~1562 Kbps
    Аудио: AC3, 2 ch, 192 Kbps, CBR
    Код:

    Общее
    Полное имя : D:Мои фильмыVyzov_S4_1-8iz8_2009_XviD_WEBRip10. Корабль-призрак (1 сер.).avi
    Формат : AVI
    Формат/Информация : Audio Video Interleave
    Размер файла : 555 Мбайт
    Продолжительность : 44 м.
    Общий поток : 1763 Кбит/сек
    Библиотека кодирования : VirtualDub build 35491/release
    Видео
    Идентификатор : 0
    Формат : MPEG-4 Visual
    Профиль формата : Advanced Simple@L5
    Параметр BVOP формата : 2
    Параметр QPel формата : Нет
    Параметр GMC формата : Без точки перехода
    Параметр матрицы формата : Default (H.263)
    Идентификатор кодека : XVID
    Идентификатор кодека/Подсказка : XviD
    Продолжительность : 44 м.
    Битрейт : 1562 Кбит/сек
    Ширина : 720 пикселей
    Высота : 400 пикселей
    Соотношение сторон : 16:9
    Частота кадров : 25, 000 кадров/сек
    Цветовое пространство : YUV
    Субдискретизация насыщенности : 4:2:0
    Битовая глубина : 8 бит
    Тип развёртки : Прогрессивная
    Метод сжатия : С потерями
    Бит/(Пиксели*Кадры) : 0.217
    Размер потока : 491 Мбайт (89%)
    Библиотека кодирования : XviD 67
    Аудио
    Идентификатор : 1
    Формат : AC-3
    Формат/Информация : Audio Coding 3
    Расширение режима : CM (complete main)
    Параметр Endianness формата : Big
    Идентификатор кодека : 2000
    Продолжительность : 43 м.
    Вид битрейта : Постоянный
    Битрейт : 192 Кбит/сек
    Каналы : 2 канала
    Расположение каналов : Front: L R
    Частота : 48, 0 КГц
    Частота кадров : 31, 250 кадров/сек (1536 spf)
    Метод сжатия : С потерями
    Размер потока : 60, 4 Мбайт (11%)
    Выравнивание : Соединение по промежуткам
    Продолжительность промежутка : 40 мс. (1, 00 видеокадр)
    Время предзагрузки промежутка : 512 мс.


    Скриншоты для ознакомления




    Онлайн видео Вызов (2009) WEBRip (сезон любимого сериала 4, серии 1



    Вызов (2009) WEBRip (сезон 4, серии 1-8 из 8)
    загрузка...
    Рейтинг →
     (голосов: 1, оценка 3/5, голосовать можно 1 раз )

    Другие торренты по теме:

  • Павел Колесов | Тест-Драйв: лучшие тренинги (+ "2012 Сбыча Мечт: Вызов") (2006-2012) WEBRip скачать через торрент бесплатно
  • Вызов (2006) WEBRip (сезон 1, серии 1-12 из 12)
  • Вызов (2008) WEBRip (сезон 3, серий 1-12 из 12)
  • Вызов (2007) WEBRip (сезон 2, серии 1-12 из 12)
  • Безработный с дипломом 2. Вызов / Velaiilla Pattadhari 2 (2017) WEBRip [TAM / RU sub]


    • Комментарии (0):

      Информация

      Информация

        Посетители, находящиеся в группе Гости, не могут оставлять комментарии в данной новости.

        ↓ Меню




        ↓ Опрос

        Вы добавили сайт в закладки?
        Да
        Нет


        Top 10 за месяц (Фильмы)