.
Авторизация | Регистрация
Хочешь лучшие торренты? Добавь свой email!
Добавить

Торрент скачать бесплатно

» » 11 / 22 / 63 / 11.22.63 (2016) HDTVRip (сезон 1, серии 1 из 8) LostFilm (обновляемая) торрент скачать бесплатно




    11 / 22 / 63 / 11.22.63 (2016) HDTVRip (сезон 1, серии 1 из 8) LostFilm (обновляемая) торрент скачать бесплатно

    Опубликовал: Админ | Дата: 20-02-2016, 04:01 | Просмотров: 45

    Производство: США/Bad Robot, Warner Bros. Television
    Жанр: фантастика, триллер, детектив
    Режиссер: Джеймс Стронг, Фред Туа, Джеймс Кент

    Актеры
    Джеймс Франко, Крис Купер, Джош Дюамель, Люси Фрай, Сара Гадон, Черри Джонс, Т.Р. Найт, Джордж МакКэй, Даниэль Уэббер и др.

    Описание

    Фантастический фильм по роману Стивена Кинга 11/22/63. Волк в овечьей шкуре, сказал кто то из толпы, к чему не понятно. Джейк Эппинг – учитель английского языка в средней школе. Один из его учеников пишет эссе о том, что случилось 50 лет назад. Отец одного мальчика пришел домой пьяным и забил молотком свою жену, двух сыновей и дочь. Мальчик остался жив, но с тех пор хромает. Друг Джейка предлагает ему отправиться в 1958 год и предотвратить убийство президента Джона Кеннеди. Джейк не только спасает семью того мальчика, но и выслеживает убийцу Кеннеди.

    Дата мировой премьеры: 15 февраля 2016
    Продолжительность: ~01: 20: 00 серия
    Качество видео: HDTVRip
    Перевод: Многоголосый закадровый, профессиональный -LostFilm
    Видео: XviD, 720x400 (16: 9), ~1761 kb/s
    Аудио Rus: MPEG Layer 3, 48, 0 kHz, 2 ch, 192 kb/s — многоголосый закадровый
    Общее
    Полное имя : D: 11.22.63 (сезон любимого сериала 1) HDTVRip - LostFilm11.22.63.S01E01.rus.LostFilm.TV.avi
    Формат : AVI
    Формат/Информация : Audio Video Interleave
    Размер файла : 1, 11 Гбайт
    Продолжительность : 1 ч. 20 м.
    Режим общего битрейта : Переменный
    Общий поток : 1962 Кбит/сек
    Программа кодирования : Nandub v1.0rc2
    Библиотека кодирования : Nandub build 1853/release
    Видео
    Идентификатор : 0
    Формат : MPEG-4 Visual
    Профиль формата : Advanced Simple@L5
    Параметр BVOP формата : Нет
    Параметр QPel формата : Нет
    Параметр GMC формата : Без точки перехода
    Параметр матрицы формата : Default (H.263)
    Идентификатор кодека : XVID
    Идентификатор кодека/Подсказка : XviD
    Продолжительность : 1 ч. 20 м.
    Битрейт : 1761 Кбит/сек
    Ширина : 720 пикселей
    Высота : 400 пикселей
    Соотношение сторон : 16: 9
    Частота кадров : 23, 976 (23976/1000) кадра/сек
    Цветовое пространство : YUV
    Субдискретизация насыщенности : 4: 2: 0
    Битовая глубина : 8 бит
    Тип развёртки : Прогрессивная
    Метод сжатия : С потерями
    Бит/(Пиксели*Кадры) : 0.255
    Размер потока : 1018 Мбайт (90%)
    Библиотека кодирования : XviD 1.2.1 (UTC 2008-12-04)
    Аудио
    Идентификатор : 1
    Формат : MPEG Audio
    Версия формата : Version 1
    Профиль формата : Layer 3
    Режим : Joint stereo
    Расширение режима : MS Stereo
    Идентификатор кодека : 55
    Идентификатор кодека/Подсказка : MP3
    Продолжительность : 1 ч. 20 м.
    Вид битрейта : Переменный
    Битрейт : 192 Кбит/сек
    Каналы : 2 канала
    Частота : 48, 0 КГц
    Метод сжатия : С потерями
    Размер потока : 109 Мбайт (10%)
    Выравнивание : Соединение по промежуткам
    Продолжительность промежутка : 24 мс. (0, 58 видеокадр)
    Время предзагрузки промежутка : 490 мс.
    Библиотека кодирования : LAME3.97b
    Настройки программы : -m j -V 4 -q 3 -lowpass 18.6 --abr 192


    Скриншоты для ознакомления




    11/22/63/11.22.63 (2016) HDTVRip (сезон 1, серии 1 из 8) LostFilm (обновляемая)
    загрузка...
    Рейтинг →
     (голосов: 1, оценка 4/5, голосовать можно 1 раз )

    Другие торренты по теме:

  • Подпольная империя (Преступная империя) / Boardwalk Empire (2014) HDTVRip (Сезон 5, серии 1-3 из 8) Ю.Сербин (обновляемая)
  • Больница Никербокер / The Knick (2014) HDTVRip (Сезон 1, серии 1-6 из 10) (BaibaKo) (обновляемая)
  • Discovery: Через червоточину с Морганом Фрименом / Through The Wormhole with Morgan Freeman (2014) HDTVRip (Сезон №5, серия №10)
  • Стелла / Stella (2012) HDTVRip (Сезон 1, серии 1-8 из 10) ViruseProject (обновляемая)
  • Запертая комната / Kagi no Kakatta Heya (2012) HDTVRip (сезон 1, серии 1-5 из 11) [JAP] ViruseProject (обновляемая)
  • За пределами / Выжившая / Род человеческий / Extant (2014) HDTVRip (Сезон 1, серии 1-12 из 13) (Amedia) (обновляемая)
  • Лотерея / The Lottery (2014) HDTVRip (Сезон 1, серии 1-9 из 10) ViruseProject (обновляемая)
  • Чужестранка / Outlander (2014) HDTVRip (Сезон 1, серии 1-7 из 16) (NewStudio) (обновляемая)


    • Комментарии (0):

      Информация

      Информация

        Посетители, находящиеся в группе Гости, не могут оставлять комментарии в данной новости.

        ↓ Меню




        ↓ Опрос

        Вы добавили сайт в закладки?
        Да
        Нет


        Top 10 за месяц (Фильмы)