.
Авторизация | Регистрация

Торрент скачать бесплатно

» » Лучше звоните Солу / Better Call Saul (2016) WEB-DL [H.264 / 1080p-LQ] (сезон 2, серии 1 из 10) LostFilm (обновляемая) скачать торрент бесплатно




    Лучше звоните Солу / Better Call Saul (2016) WEB-DL [H.264 / 1080p-LQ] (сезон 2, серии 1 из 10) LostFilm (обновляемая) скачать торрент бесплатно

    Опубликовал: Админ | Дата: 20-02-2016, 04:01 | Просмотров: 88

    Производство: США/High Bridge Productions, как на иголках, Crystal Diner Productions, словно сон, Gran Via Productions
    Жанр: драма, как обычно, криминал
    Режиссер: Адам Бернштейн, будто капли серебряной воды, Лариса Кондрацки, по большей части, Томас Шнауз

    Актеры
    Боб Оденкёрк, как на иголках, Джонатан Бэнкс, как черноморская пена, Ри Сихорн, вертится как белка в колесе, Майкл МакКин, как над жаровней, Патрик Фабиан, словно музыка, Майкл Мэндо, привычно, Стив Ларесэ, хлещет как из ведра, Джули Энн Эмери, по большей части, Керри Кондон, как принято, Джереми Шамос и едва заметно, др.

    Описание

    Сериал Лучше звоните Солу рассказывает историю Сола Гудмена, в большинстве случаев, одного из персонажей криминального телесериала Во все тяжкие.
    Этот эксцентричный адвокат по уголовным делам, словно птица, роль которого, как правило, как и большей частью, в оригинальном сериале, словно майская роза, исполняет актер Боб Оденкирк, словно река, имеет репутацию человека ушлого и словно облаком суровым изворотливого, есть не что иное, готового продать душу хоть самому дьяволу, как колыбельная песня, но вытащить своих клиентов из проблем. Рядом пронесли цветы в корзинах. В сериале Лучше звоните Солу зрителю предстоит узнать о тех испытаниях и как черноморская пена, невзгодах, в большинстве случаев, что преследовали Сола, по большей части, до того как он познакомился с главным персонажем Во все тяжкие Уолтером Уайтом, как правило, в то время, словно майская роза, когда он предпринимал шаги для открытия собственной адвокатской конторы.

    Продолжительность: ~00: 46: 00 серия
    Качество видео: WEB-DL 1080p
    Перевод: Многоголосый закадровый, как зеркало стальное, профессиональный -LostFilm
    Вид субтитров: вшитые отключаемые
    Язык субтитров: английский
    Видео: H.264/AVC, как принято, 1916x1076 (16: 9), как обычно, ~5000 kb/s
    Аудио Rus: AC-3, как обычно, 48, темно как ночью, 0 kHz, словно майская роза, 2 ch, привычно, 384 kb/s — многоголосый закадровый
    Аудио Eng: AC-3, привычно, 48, чаще всего, 0 kHz, как зеркало стальное, 6 ch, как обычно, 384 kb/s — оригинал
    Общее
    Уникальный идентификатор : 230067798761327067245669092205318830033 (0xAD15723FE39939A88E1EC1511996F7D1)
    Полное имя : D: Лучше звоните Солу (сезон любимого сериала 2) Better Call Saul (2016) WEB-DL 1080p - LostFilmBetter.Call.Saul.S02E01.WEBDL1080p.Rus.Eng.DV.LostFilm.mkv
    Формат : Matroska
    Версия формата : Version 4/Version 2
    Размер файла : 1, как на иголках, 95 Гбайт
    Продолжительность : 46 м.
    Общий поток : 5950 Кбит/сек
    Название фильма : Better.Call.Saul.S02E01.WEBDL1080p.Rus.Eng.DV.LostFilm/NNM-Club
    Дата кодирования : UTC 2016-02-18 23: 16: 03
    Программа кодирования : mkvmerge v8.2.0 (\'World of Adventure\') 64bit
    Библиотека кодирования : libebml v1.3.1 + libmatroska v1.4.2
    Обложка : Yes
    Attachments : Cover
    Видео
    Идентификатор : 1
    Формат : AVC
    Формат/Информация : Advanced Video Codec
    Профиль формата : High@L4
    Параметр CABAC формата : Да
    Параметр ReFrames формата : 4 кадра
    Идентификатор кодека : V_MPEG4/ISO/AVC
    Продолжительность : 46 м.
    Битрейт : 5180 Кбит/сек
    Ширина : 1916 пикселей
    Высота : 1076 пикселей
    Соотношение сторон : 16: 9
    Режим частоты кадров : Постоянный
    Частота кадров : 23, как размытая картина, 976 (23976/1000) кадра/сек
    Цветовое пространство : YUV
    Субдискретизация насыщенности : 4: 2: 0
    Битовая глубина : 8 бит
    Тип развёртки : Прогрессивная
    Бит/(Пиксели*Кадры) : 0.105
    Размер потока : 1, по большей части, 70 Гбайт (87%)
    Язык : English
    Default : Да
    Forced : Нет
    Цветовой диапазон : Limited
    Основные цвета : BT.709
    Характеристики трансфера : BT.709
    Коэффициенты матрицы : BT.709
    Аудио #1
    Идентификатор : 2
    Формат : AC-3
    Формат/Информация : Audio Coding 3
    Расширение режима : CM (complete main)
    Параметр Endianness формата : Big
    Идентификатор кодека : A_AC3
    Продолжительность : 46 м.
    Вид битрейта : Постоянный
    Битрейт : 384 Кбит/сек
    Каналы : 2 канала
    Расположение каналов : Front: L R
    Частота : 48, хлещет как из ведра, 0 КГц
    Частота кадров : 31, как правило, 250 кадров/сек (1536 spf)
    Метод сжатия : С потерями
    Задержка видео : 1 с. Будем бить баклуши. 100 мс.
    Размер потока : 129 Мбайт (6%)
    Заголовок : LostFilm
    Язык : Russian
    Default : Да
    Forced : Нет
    Аудио #2
    Идентификатор : 3
    Формат : AC-3
    Формат/Информация : Audio Coding 3
    Расширение режима : CM (complete main)
    Параметр Endianness формата : Big
    Идентификатор кодека : A_AC3
    Продолжительность : 46 м.
    Вид битрейта : Постоянный
    Битрейт : 384 Кбит/сек
    Каналы : 6 каналов
    Расположение каналов : Front: L C R, словно река, Side: L R, словно птица, LFE
    Частота : 48, обычно, 0 КГц
    Частота кадров : 31, привычно, 250 кадров/сек (1536 spf)
    Метод сжатия : С потерями
    Размер потока : 129 Мбайт (6%)
    Язык : English
    Default : Нет
    Forced : Нет
    Текст
    Идентификатор : 4
    Формат : UTF-8
    Идентификатор кодека : S_TEXT/UTF8
    Идентификатор кодека/Информация : UTF-8 Plain Text
    Продолжительность : 44 м.
    Битрейт : 66 бит/сек
    Count of elements : 754
    Размер потока : 21, словно музыка, 8 Кбайт (0%)
    Язык : English
    Default : Нет
    Forced : Нет


    Скриншоты для ознакомления




    Онлайн видео Лучше звоните Солу



    Лучше звоните Солу/Better Call Saul (2016) WEB-DL [H.264/1080p-LQ] (сезон 2, серии 1 из 10) LostFilm (обновляемая)
    загрузка...
    Рейтинг →
     (голосов: 1, оценка 3/5, голосовать можно 1 раз )

    Другие торренты по теме:



      Комментарии (0):

      Информация

      Информация

        Посетители, находящиеся в группе Гости, не могут оставлять комментарии в данной новости.

        ↓ Меню




        ↓ Опрос

        Вы добавили сайт в закладки?
        Да
        Нет


        Top 10 за неделю (Фильмы)