.
Авторизация | Регистрация
Хочешь лучшие торренты? Добавь свой email!
Добавить

Торрент скачать бесплатно

» » Лучше звоните Солу / Better Call Saul (2015) WEB-DL [H.264 / 720p-LQ] (сезон 2, серия 1 из 10) NewStudio (обновляемая) торрент скачать бесплатно




    Лучше звоните Солу / Better Call Saul (2015) WEB-DL [H.264 / 720p-LQ] (сезон 2, серия 1 из 10) NewStudio (обновляемая) торрент скачать бесплатно

    Опубликовал: Админ | Дата: 20-02-2016, 04:01 | Просмотров: 90

    Производство : США
    Жанр: Драма, криминал
    Режиссер: Колин Бакси, Адам Бернштейн, Винс Гиллиган

    Актеры
    Боб Оденкёрк, Ри Сихорн, Патрик Фабиан, Майкл МакКин, Майкл Мэндо, Джонатан Бэнкс, Ген Н. Чавес, Джил Мюррэй, Тим Чайлдресс и др.

    Описание

    История об испытаниях и невзгодах, которые приходится преодолеть Солу Гудману, адвокату по уголовным делам, в тот период, когда он пытается открыть свою собственную адвокатскую контору в Альбукерке, штат Нью-Мексико.

    Продолжительность: ~ 00: 46: 00 серия
    Качество видео: WEB-DL
    Перевод: Многоголосый закадровый, профессиональный -NewStudio
    Автор перевода: Григорий Сенин
    Видео: AVC/H.264, 1280x718 (16: 9), ~ 3977 Кбит/сек
    Аудио #1 Rus: AC-3, 6 ch, 384 Кбит/сек - многоголосый закадровый
    Аудио #2 Eng: AC-3, 6 ch, 384 Кбит/сек - оригинал
    Код:
    Общее
    Уникальный идентификатор : 172138365122787781171235470956578871280 (0x8180A4A88B6054F08A8402ED22BA17F0)
    Полное имя : Better.Call.Saul.s02e01.WEBDL.720p.NewStudio.TV.mkv
    Формат : Matroska
    Версия формата : Version 4/Version 2
    Размер файла : 1, 56 Гбайт
    Продолжительность : 46 м.
    Общий поток : 4747 Кбит/сек
    Дата кодирования : UTC 2016-02-18 21:29:47
    Программа кодирования : mkvmerge v8.3.0 (\'Over the Horizon\') 64bit
    Библиотека кодирования : libebml v1.3.1 + libmatroska v1.4.2
    Видео
    Идентификатор : 1
    Формат : AVC
    Формат/Информация : Advanced Video Codec
    Профиль формата :High@L3.1
    Параметр CABAC формата : Нет
    Параметр ReFrames формата : 2 кадра
    Идентификатор кодека : V_MPEG4/ISO/AVC
    Продолжительность : 46 м.
    Битрейт : 3977 Кбит/сек
    Ширина : 1280 пикселей
    Высота : 718 пикселей
    Соотношение сторон : 16:9
    Режим частоты кадров : Постоянный
    Частота кадров : 23, 976 (23976/1000) кадра/сек
    Цветовое пространство : YUV
    Субдискретизация насыщенности : 4:2:0
    Битовая глубина : 8 бит
    Тип развёртки : Прогрессивная
    Бит/(Пиксели*Кадры) : 0.180
    Размер потока : 1, 30 Гбайт (84%)
    Язык : English
    Default : Да
    Forced : Нет
    Цветовой диапазон : Limited
    Основные цвета : BT.709
    Характеристики трансфера : BT.709
    Коэффициенты матрицы : BT.709
    Аудио #1
    Идентификатор : 2
    Формат : AC-3
    Формат/Информация : Audio Coding 3
    Расширение режима : CM (complete main)
    Параметр Endianness формата : Big
    Идентификатор кодека : A_AC3
    Продолжительность : 46 м.
    Вид битрейта : Постоянный
    Битрейт : 384 Кбит/сек
    Каналы : 6 каналов
    Расположение каналов : Front: L C R, Side: L R, LFE
    Частота : 48, 0 КГц
    Частота кадров : 31, 250 кадров/сек (1536 spf)
    Метод сжатия : С потерями
    Размер потока : 129 Мбайт (8%)
    Язык : Russian
    Default : Да
    Forced : Нет
    Аудио #2
    Идентификатор : 3
    Формат : AC-3
    Формат/Информация : Audio Coding 3
    Расширение режима : CM (complete main)
    Параметр Endianness формата : Big
    Идентификатор кодека : A_AC3
    Продолжительность : 46 м.
    Вид битрейта : Постоянный
    Битрейт : 384 Кбит/сек
    Каналы : 6 каналов
    Расположение каналов : Front: L C R, Side: L R, LFE
    Частота : 48, 0 КГц
    Частота кадров : 31, 250 кадров/сек (1536 spf)
    Метод сжатия : С потерями
    Размер потока : 129 Мбайт (8%)
    Язык : English
    Default : Нет
    Forced : Нет


    Скриншоты для ознакомления




    Онлайн видео Лучше звоните Солу



    Лучше звоните Солу/Better Call Saul (2015) WEB-DL [H.264/720p-LQ] (сезон 2, серия 1 из 10) NewStudio (обновляемая)
    загрузка...
    Рейтинг →
     (голосов: 1, оценка 4/5, голосовать можно 1 раз )

    Другие торренты по теме:

  • Лучше звоните Солу / Better Call Saul (2015) WEB-DLRip (сезон 1, серии 1 из 10) NewStudio (обновляемая)
  • Лучше звоните Солу / Better Call Saul (2015) WEB-DL [H.264 / 720p-LQ] (Сезон 1, серия 1 из 10) (NewStudio) (обновляемая)
  • Лучше звоните Солу / Better Call Saul (2015) WEB-DL [H.264 / 1080p-LQ] (сезон 1, серия 1-2 из 10) NewStudio (обновляемая) скачать через торрент бесплатно
  • Лучше звоните Солу / Better Call Saul (2015) WEB-DL [H.264 / 720p-LQ] (Сезон 1, серия 1 из 10) (Кубик в Кубе) (обновляемая) скачать через торрент бесплатно
  • Лучше звоните Солу / Better Call Saul (2015) WEB-DLRip (сезон 1, серии 1 из 10) LostFilm (обновляемая)
  • Лучше звоните Солу / Better Call Saul (2015) WEB-DLRip (сезон 1, серии 1-2 из 10) BaibaKo (обновляемая)
  • Лучше звоните Солу / Better Call Saul (2015) WEB-DL [H.264 / 720p-LQ] (сезон 1, серии 1 из 10) LostFilm (обновляемая) скачать через торрент бесплатно
  • Лучше звоните Солу / Better Call Saul (2015) WEB-DL [H.264 / 1080p-LQ] (сезон 1, серии 1-2 из 10) LostFilm + Кубик-В-Кубе + NewStudio + Sub / Rus, Eng (обновляемая)


    • Комментарии (0):

      Информация

      Информация

        Посетители, находящиеся в группе Гости, не могут оставлять комментарии в данной новости.

        ↓ Меню




        ↓ Опрос

        Вы добавили сайт в закладки?
        Да
        Нет


        Top 10 за месяц (Фильмы)