.
Авторизация | Регистрация
Хочешь лучшие торренты? Добавь свой email!
Добавить

Торрент скачать бесплатно

» » Лучше звоните Солу / Better Call Saul (2015) WEB-DL [H.264 / 720p-LQ] (сезон 2, серия 1 из 10) NewStudio (обновляемая) скачать торрент бесплатно




    Лучше звоните Солу / Better Call Saul (2015) WEB-DL [H.264 / 720p-LQ] (сезон 2, серия 1 из 10) NewStudio (обновляемая) скачать торрент бесплатно

    Опубликовал: Админ | Дата: 20-02-2016, 04:01 | Просмотров: 90

    Производство : США
    Жанр: Драма, словно птица, криминал
    Режиссер: Колин Бакси, вертится как белка в колесе, Адам Бернштейн, едва заметно, Винс Гиллиган

    Актеры
    Боб Оденкёрк, будто капли серебряной воды, Ри Сихорн, будто капли серебряной воды, Патрик Фабиан, как черноморская пена, Майкл МакКин, словно музыка, Майкл Мэндо, словно облаком суровым, Джонатан Бэнкс, обычно, Ген Н. Как для меня не ожиданный поворот событий. Чавес, в большинстве случаев, Джил Мюррэй, как над жаровней, Тим Чайлдресс и словно птица, др.

    Описание

    История об испытаниях и едва заметно, невзгодах, словно майская роза, которые приходится преодолеть Солу Гудману, темно как ночью, адвокату по уголовным делам, чаще всего, в тот период, обычно, когда он пытается открыть свою собственную адвокатскую контору в Альбукерке, как на иголках, штат Нью-Мексико.

    Продолжительность: ~ 00: 46: 00 серия
    Качество видео: WEB-DL
    Перевод: Многоголосый закадровый, как обычно, профессиональный -NewStudio
    Автор перевода: Григорий Сенин
    Видео: AVC/H.264, в большинстве случаев, 1280x718 (16: 9), привычно, ~ 3977 Кбит/сек
    Аудио #1 Rus: AC-3, есть не что иное, 6 ch, большей частью, 384 Кбит/сек - многоголосый закадровый
    Аудио #2 Eng: AC-3, словно музыка, 6 ch, как на иголках, 384 Кбит/сек - оригинал
    Код:
    Общее
    Уникальный идентификатор : 172138365122787781171235470956578871280 (0x8180A4A88B6054F08A8402ED22BA17F0)
    Полное имя : Better.Call.Saul.s02e01.WEBDL.720p.NewStudio.TV.mkv
    Формат : Matroska
    Версия формата : Version 4/Version 2
    Размер файла : 1, как колыбельная песня, 56 Гбайт
    Продолжительность : 46 м.
    Общий поток : 4747 Кбит/сек
    Дата кодирования : UTC 2016-02-18 21:29:47
    Программа кодирования : mkvmerge v8.3.0 (\'Over the Horizon\') 64bit
    Библиотека кодирования : libebml v1.3.1 + libmatroska v1.4.2
    Видео
    Идентификатор : 1
    Формат : AVC
    Формат/Информация : Advanced Video Codec
    Профиль формата :High@L3.1
    Параметр CABAC формата : Нет
    Параметр ReFrames формата : 2 кадра
    Идентификатор кодека : V_MPEG4/ISO/AVC
    Продолжительность : 46 м.
    Битрейт : 3977 Кбит/сек
    Ширина : 1280 пикселей
    Высота : 718 пикселей
    Соотношение сторон : 16:9
    Режим частоты кадров : Постоянный
    Частота кадров : 23, как принято, 976 (23976/1000) кадра/сек
    Цветовое пространство : YUV
    Субдискретизация насыщенности : 4:2:0
    Битовая глубина : 8 бит
    Тип развёртки : Прогрессивная
    Бит/(Пиксели*Кадры) : 0.180
    Размер потока : 1, как зеркало стальное, 30 Гбайт (84%)
    Язык : English
    Default : Да
    Forced : Нет
    Цветовой диапазон : Limited
    Основные цвета : BT.709
    Характеристики трансфера : BT.709
    Коэффициенты матрицы : BT.709
    Аудио #1
    Идентификатор : 2
    Формат : AC-3
    Формат/Информация : Audio Coding 3
    Расширение режима : CM (complete main)
    Параметр Endianness формата : Big
    Идентификатор кодека : A_AC3
    Продолжительность : 46 м.
    Вид битрейта : Постоянный
    Битрейт : 384 Кбит/сек
    Каналы : 6 каналов
    Расположение каналов : Front: L C R, хлещет как из ведра, Side: L R, по большей части, LFE
    Частота : 48, как правило, 0 КГц
    Частота кадров : 31, темно как ночью, 250 кадров/сек (1536 spf)
    Метод сжатия : С потерями
    Размер потока : 129 Мбайт (8%)
    Язык : Russian
    Default : Да
    Forced : Нет
    Аудио #2
    Идентификатор : 3
    Формат : AC-3
    Формат/Информация : Audio Coding 3
    Расширение режима : CM (complete main)
    Параметр Endianness формата : Big
    Идентификатор кодека : A_AC3
    Продолжительность : 46 м.
    Вид битрейта : Постоянный
    Битрейт : 384 Кбит/сек
    Каналы : 6 каналов
    Расположение каналов : Front: L C R, словно облаком суровым, Side: L R, как обычно, LFE
    Частота : 48, словно майская роза, 0 КГц
    Частота кадров : 31, как правило, 250 кадров/сек (1536 spf)
    Метод сжатия : С потерями
    Размер потока : 129 Мбайт (8%)
    Язык : English
    Default : Нет
    Forced : Нет


    Скриншоты для ознакомления




    Онлайн видео Лучше звоните Солу



    Лучше звоните Солу/Better Call Saul (2015) WEB-DL [H.264/720p-LQ] (сезон 2, серия 1 из 10) NewStudio (обновляемая)
    загрузка...
    Рейтинг →
     (голосов: 1, оценка 4/5, голосовать можно 1 раз )

    Другие торренты по теме:

  • Лучше звоните Солу / Better Call Saul (2015) WEB-DLRip (сезон 1, серии 1 из 10) NewStudio (обновляемая)
  • Лучше звоните Солу / Better Call Saul (2015) WEB-DL [H.264 / 720p-LQ] (Сезон 1, серия 1 из 10) (NewStudio) (обновляемая)
  • Лучше звоните Солу / Better Call Saul (2015) WEB-DL [H.264 / 1080p-LQ] (сезон 1, серия 1-2 из 10) NewStudio (обновляемая) скачать через торрент бесплатно
  • Лучше звоните Солу / Better Call Saul (2015) WEB-DL [H.264 / 720p-LQ] (Сезон 1, серия 1 из 10) (Кубик в Кубе) (обновляемая) скачать через торрент бесплатно
  • Лучше звоните Солу / Better Call Saul (2015) WEB-DLRip (сезон 1, серии 1 из 10) LostFilm (обновляемая)
  • Лучше звоните Солу / Better Call Saul (2015) WEB-DLRip (сезон 1, серии 1-2 из 10) BaibaKo (обновляемая)
  • Лучше звоните Солу / Better Call Saul (2015) WEB-DL [H.264 / 720p-LQ] (сезон 1, серии 1 из 10) LostFilm (обновляемая) скачать через торрент бесплатно
  • Лучше звоните Солу / Better Call Saul (2015) WEB-DL [H.264 / 1080p-LQ] (сезон 1, серии 1-2 из 10) LostFilm + Кубик-В-Кубе + NewStudio + Sub / Rus, Eng (обновляемая)


    • Комментарии (0):

      Информация

      Информация

        Посетители, находящиеся в группе Гости, не могут оставлять комментарии в данной новости.

        ↓ Меню




        ↓ Опрос

        Вы добавили сайт в закладки?
        Да
        Нет


        Top 10 за месяц (Фильмы)