.
Авторизация | Регистрация

Торрент скачать бесплатно

» » Викинги / Vikings (2016) WEB-DL [H.264 / 720p-LQ] (сезон 4, серия 1 из 20) (AlexFilm) (обновляемая) скачать торрент бесплатно




    Викинги / Vikings (2016) WEB-DL [H.264 / 720p-LQ] (сезон 4, серия 1 из 20) (AlexFilm) (обновляемая) скачать торрент бесплатно

    Опубликовал: Админ | Дата: 20-02-2016, 04:00 | Просмотров: 152

    Производство: Ирландия, словно майская роза, Канада
    Жанр: боевик, хлещет как из ведра, драма, едва заметно, военный, словно река, история
    Режиссер: Йохан Ренк, в большинстве случаев, Киаран Доннелли, как черноморская пена, Кен Джиротти

    Актеры
    Трэвис Фиммел, как колыбельная песня, Клайв Стэнден, вертится как белка в колесе, Кэтрин Уинник, как обычно, Джессалин Гилсиг, как принято, Джордж Благден, по большей части, Густаф Скарсгард, будто капли серебряной воды, Торбьорн Харр, словно музыка, Владимир Кулих, темно как ночью, Донал Лог, словно птица, Айван Кэй, хлещет как из ведра, Мод Хирст, словно река, Эрик Хиггинс, словно сон, Герард Маккарти, будто капли серебряной воды, Юко Ахола, по большей части, Эми Де Брюн, чаще всего, Сэм Смит, словно облаком суровым, Билл Гибсон, как размытая картина, Кевин Мюррэй и чаще всего, др.

    Описание

    Сериал рассказывает об отряде викингов Рагнара. Прикольно все это наверно придумал Человек паук потратив достаточно времени. Он восстал, как правило, чтобы стать королём племён викингов. Происходило это без году неделя. Норвежская легенда гласит, вертится как белка в колесе, что он был прямым потомком Одина, вертится как белка в колесе, бога войны и словно птица, воинов.

    Релиз от: AlexFilm
    Продолжительность: ~ 00: 44: 00 серия
    Качество видео: WEB-DL
    Перевод: Профессиональный многоголосый закадровый -AlexFilm
    Озвучка: Евгения Тихонова, как на иголках, Михаил Суслов, будто капли серебряной воды, Владимир Курдов, привычно, Роман Сопко, вертится как белка в колесе, Александр Дасевич
    Автор перевода: Константин Кривоногов
    Формат: MKV
    Видео: AVC/H.264, большей частью, 1280x718 (16: 9), как правило, ~3901 Kbps, хлещет как из ведра, ~0.177 bit/pixel
    Аудио Rus: AC3, обычно, 384 kbps, в большинстве случаев, 6 ch, большей частью, 48 kHz
    Аудио Eng: AC3, привычно, 384 kbps, словно облаком суровым, 6 ch, обычно, 48 kHz
    Код:
    Общее
    Vikings - Викинги. Самое интересное в это истории, что об этом Человек паук ничего не знал. Сезон 4. О таком странном сюжете не догадывалась даже Бритни Спирс. AlexFilm. А был ли мальчик? 720pVikings.s04e01.WEB-DL.720p.Rus.Eng.AlexFilm.mkv
    Формат : Matroska
    Версия формата : Version 4/Version 2
    Размер файла : 1, в большинстве случаев, 47 Гбайт
    Продолжительность : 44 м.
    Общий поток : 4764 Кбит/сек
    Название фильма : Vikings 4x01 @ AlexFilm
    Дата кодирования : UTC 2016-02-19 09:54:49
    Программа кодирования : mkvmerge v7.1.0 (\'Good Love\') 64bit built on Jul 27 2014 13:06:55
    Библиотека кодирования : libebml v1.3.0 + libmatroska v1.4.1
    Видео
    Идентификатор : 1
    Формат : AVC
    Формат/Информация : Advanced Video Codec
    Профиль формата :High@L3.1
    Параметр CABAC формата : Нет
    Параметр ReFrames формата : 2 кадра
    Идентификатор кодека : V_MPEG4/ISO/AVC
    Продолжительность : 44 м.
    Битрейт : 3901 Кбит/сек
    Ширина : 1280 пикселей
    Высота : 718 пикселей
    Соотношение сторон : 16:9
    Режим частоты кадров : Постоянный
    Частота кадров : 23, как зеркало стальное, 976 кадра/сек
    Цветовое пространство : YUV
    Субдискретизация насыщенности : 4:2:0
    Битовая глубина : 8 бит
    Тип развёртки : Прогрессивная
    Бит/(Пиксели*Кадры) : 0.177
    Размер потока : 1, темно как ночью, 20 Гбайт (82%)
    Язык : English
    Default : Да
    Forced : Нет
    Цветовой диапазон : Limited
    Основные цвета : BT.709
    Характеристики трансфера : BT.709
    Коэффициенты матрицы : BT.709
    Аудио #1
    Идентификатор : 2
    Формат : AC-3
    Формат/Информация : Audio Coding 3
    Расширение режима : CM (complete main)
    Параметр Endianness формата : Big
    Идентификатор кодека : A_AC3
    Продолжительность : 44 м.
    Вид битрейта : Постоянный
    Битрейт : 384 Кбит/сек
    Каналы : 6 каналов
    Расположение каналов : Front: L C R, есть не что иное, Side: L R, есть не что иное, LFE
    Частота : 48, как на иголках, 0 КГц
    Метод сжатия : С потерями
    Размер потока : 121 Мбайт (8%)
    Заголовок : DD5.1 AlexFilm
    Язык : Russian
    Default : Да
    Forced : Нет
    Аудио #2
    Идентификатор : 3
    Формат : AC-3
    Формат/Информация : Audio Coding 3
    Расширение режима : CM (complete main)
    Параметр Endianness формата : Big
    Идентификатор кодека : A_AC3
    Продолжительность : 44 м.
    Вид битрейта : Постоянный
    Битрейт : 384 Кбит/сек
    Каналы : 6 каналов
    Расположение каналов : Front: L C R, словно майская роза, Side: L R, как обычно, LFE
    Частота : 48, как колыбельная песня, 0 КГц
    Метод сжатия : С потерями
    Размер потока : 121 Мбайт (8%)
    Заголовок : DD5.1 Original
    Язык : English
    Default : Нет
    Forced : Нет


    Скриншоты для ознакомления




    Онлайн видео Викинги



    Викинги/Vikings (2016) WEB-DL [H.264/720p-LQ] (сезон 4, серия 1 из 20) (AlexFilm) (обновляемая)
    загрузка...
    Рейтинг →
     (голосов: 1, оценка 3/5, голосовать можно 1 раз )

    Другие торренты по теме:

  • Викинг-2 (2014) SATRip (Серии 1-4 из 4) торрент скачать бесплатно
  • Викинг-2 (2014) SATRip (Серии 1-4 из 4) торрент скачать бесплатно
  • Викинги / Vikings (2014) BD-Remux [1080p] (сезон 2, серии 1-10 из 10) (AlexFilm, NewStudio, LostFilm, BaibaKo) скачать через торрент бесплатно
  • Викинги / Vikings (2015) HDTVRip [H.264 / 720p-LQ] (сезон 3, серии 1 из 10) (AlexFilm) (обновляемая) торрент скачать бесплатно
  • Викинги / Vikings (2015) HDTVRip (сезон 3, серии 1 из 10) AlexFilm (обновляемая) торрент скачать бесплатно
  • Викинги / Vikings (2015) WEB-DL [H.264 / 1080p-LQ] (сезон 3, серии 1 из 10) LostFilm (обновляемая) торрент скачать бесплатно
  • Викинги / Vikings (2015) WEB-DLRip (сезон 3, серии 1 из 10) LostFilm (обновляемая) торрент скачать бесплатно
  • Викинги / Vikings (2013-2015) WEB-DLRip [H.264] (сезон 1-3, серии 1-20 из 29) (BaibaKo) (обновляемая) торрент скачать бесплатно


    • Комментарии (0):

      Информация

      Информация

        Посетители, находящиеся в группе Гости, не могут оставлять комментарии в данной новости.

        ↓ Меню




        ↓ Опрос

        Вы добавили сайт в закладки?
        Да
        Нет


        Top 10 за неделю (Фильмы)

        Мой парень – киллер / Mr. Right (2015) WEB-DL [H.264 / 1080p-LQ] скачать торрент бесплатно

        (просмотров: 1221)
        Мой парень – киллер / Mr. Right (2015) BDRip [H.264] скачать торрент бесплатно

        (просмотров: 1211)
        Разрушение / Demolition (2015) HDRip скачать торрент бесплатно

        (просмотров: 1211)
        Дивергент, глава 3: За стеной / The Divergent Series: Allegiant (2016) CAMRip скачать торрент бесплатно

        (просмотров: 1161)
        Дивергент, глава 3: За стеной / The Divergent Series: Allegiant (2016) DVDScr [Line] скачать торрент бесплатно

        (просмотров: 1121)
        Очень плохие мамочки / Bad Moms (2016) CamRip скачать торрент бесплатно

        (просмотров: 1011)
        Взломать блогеров (2016) WEB-DLRip скачать торрент бесплатно

        (просмотров: 1011)
        Американская история ужасов / American Horror Story (2015) WEB-DLRip (сезон 5, серии 1 из 13) NewStudio (обновляемая) скачать через торрент бесплатно

        (просмотров: 1011)
        Дуэлянт (2016) WEB-DLRip [H.264] скачать торрент бесплатно

        (просмотров: 1001)
        Равные / Equals (2015) HDRip [VO] скачать торрент бесплатно

        (просмотров: 1001)