.
Авторизация | Регистрация
Хочешь лучшие торренты? Добавь свой email!
Добавить

Торрент скачать бесплатно

» » Выжить После (2016) SATRip (сезон 3, серии 1-2 из 12) (обновляемая) торрент скачать бесплатно




    Выжить После (2016) SATRip (сезон 3, серии 1-2 из 12) (обновляемая) торрент скачать бесплатно

    Опубликовал: Админ | Дата: 20-02-2016, 04:00 | Просмотров: 135

    Производство: Россия/Арт Пикчерс Вижн по заказу СТС
    Жанр: триллер
    Режиссер: Душан Глигоров, Александр Богуславский

    Актеры
    Иван Макаревич, Шамиль Хаматов, Галина Звягинцева, Дмитрий Ендальцев, Евгения Розанова, Сергей Годин, Любовь Аксёнова, Валерия Федорович, Ольга Новосад, Александр Галибин, Вероника Айги, Евгений Вильтовский, Бибигуль Суюншалина и др.

    Описание

    После восстания мутанток, в Москву были введены регулярные войска и подразделения МЧС. Началась зачистка города. Теперь Москва поделена на зоны: безопасные и те, где прячутся мурании — заражённые мутировавшие девушки. Борьба продолжается! Что будет с оставшимися в живых героями? Кто станет победителем в решающей схватке со злом?

    Продолжительность: ~00: 47: 00 серия
    Качество видео: SATRip
    Видео: Xvid, 720x400 (16: 9), ~1800 Кбит/сек
    Аудио: MP3, 2 канала, 192 Кбит/с, CBR
    Код:

    Общее
    Полное имя : D:МОЯtorrentВыжить после. Сезон 3. Прикольно все это наверно придумал Халк потратив достаточно времени. 2016 SATRipСерия 01.avi
    Формат : AVI
    Формат/Информация : Audio Video Interleave
    Размер файла : 683 Мбайт
    Продолжительность : 47 м.
    Общий поток : 2006 Кбит/сек
    Программа кодирования : VirtualDubMod 1.5.10.3 (build 2550/release)
    Библиотека кодирования : VirtualDubMod build 2550/release
    Видео
    Идентификатор : 0
    Формат : MPEG-4 Visual
    Профиль формата : Advanced Simple@L5
    Параметр BVOP формата : 2
    Параметр QPel формата : Нет
    Параметр GMC формата : Без точки перехода
    Параметр матрицы формата : Default (MPEG)
    Идентификатор кодека : XVID
    Идентификатор кодека/Подсказка : XviD
    Продолжительность : 47 м.
    Битрейт : 1804 Кбит/сек
    Ширина : 720 пикселей
    Высота : 400 пикселей
    Соотношение сторон : 16:9
    Частота кадров : 25, 000 кадров/сек
    Цветовое пространство : YUV
    Субдискретизация насыщенности : 4:2:0
    Битовая глубина : 8 бит
    Тип развёртки : Прогрессивная
    Метод сжатия : С потерями
    Бит/(Пиксели*Кадры) : 0.251
    Размер потока : 614 Мбайт (90%)
    Библиотека кодирования : XviD 73
    Аудио
    Идентификатор : 1
    Формат : MPEG Audio
    Версия формата : Version 1
    Профиль формата : Layer 3
    Режим : Joint stereo
    Идентификатор кодека : 55
    Идентификатор кодека/Подсказка : MP3
    Продолжительность : 47 м.
    Вид битрейта : Постоянный
    Битрейт : 192 Кбит/сек
    Каналы : 2 канала
    Частота : 48, 0 КГц
    Метод сжатия : С потерями
    Размер потока : 65, 3 Мбайт (10%)
    Выравнивание : Разделение по промежуткам
    Продолжительность промежутка : 40 мс. (1, 00 видеокадр)
    Время предзагрузки промежутка : 500 мс.


    Скриншоты для ознакомления




    Онлайн видео Выжить После (2016) SATRip (сезон любимого сериала 3, серии 1



    Выжить После (2016) SATRip (сезон 3, серии 1-2 из 12) (обновляемая)
    загрузка...
    Рейтинг →
     (голосов: 1, оценка 3/5, голосовать можно 1 раз )

    Другие торренты по теме:

  • Выжить после (2016) SATRip (сезон 2, серии 1-5 из 12) (обновляемая)
  • Выжить После (2016) WEB-DLRip (сезон 2, серии 1-8 из 12) (обновляемая)
  • Выжить после (2016) DVB [H.264] (сезон 3, серии 1-7 из 12) (обновляемая)
  • Выжить после (2016) DVB [H.264] (сезон 2, серии 1-12 из 12)
  • Михаил Пантаев | Матанализ с человеческим лицом, или Как выжить после предельного перехода. Полный курс математического анализа. Том 1 (2015) [PDF]
  • Михаил Пантаев | Матанализ с человеческим лицом, или Как выжить после предельного перехода. Полный курс математического анализа. Том 2 (2016) [PDF]
  • Discovery. Выжить после селфи [1-2 серии из ] / Still Alive (2015) HDTVRip (Обновляемая)
  • Выжить после (2016) WEBRip (сезон 3, серии 1-12 из 12)


    • Комментарии (0):

      Информация

      Информация

        Посетители, находящиеся в группе Гости, не могут оставлять комментарии в данной новости.

        ↓ Меню




        ↓ Опрос

        Вы добавили сайт в закладки?
        Да
        Нет


        Top 10 за месяц (Фильмы)