.
Авторизация | Регистрация
Хочешь лучшие торренты? Добавь свой email!
Добавить

Торрент скачать бесплатно

» » Викинги / Vikings (2016) WEB-DLRip (сезон 4, серии 1 из 20) NewStudio (обновляемая) торрент скачать бесплатно




    Викинги / Vikings (2016) WEB-DLRip (сезон 4, серии 1 из 20) NewStudio (обновляемая) торрент скачать бесплатно

    Опубликовал: Админ | Дата: 20-02-2016, 04:00 | Просмотров: 111

    Производство: Ирландия, Канада/World 2000 Entertainment, Take 5 Productions, Shaw Media
    Жанр: боевик, драма, история
    Режиссер: Кен Джиротти, Киаран Доннелли, Джефф Вулнаф

    Актеры
    Трэвис Фиммел, Клайв Стэнден, Густаф Скарсгард, Кэтрин Уинник, Джордж Благден, Джессалин Гилсиг, Мод Хирст, Алисса Сазерленд, Джефферсон Холл, Александр Людвиг и др.

    Описание

    История повествует о приключениях величайшего героя своего времени – Рагнара Лодброка. В сериале показан Рагнар со своим племенем братьев-викингов и его семьёй в процессе становления королём всех племён викингов. Рагнар – бесстрашный воин, и религиозный викинг, который объединяет все племена и распространяет среди них поклонение скандинавским богам. Согласно легенде, он – прямой потомок Одина, бога войны и воителей.

    Продолжительность: ~00: 44: 00 серия
    Качество видео: WEB-DLRip
    Перевод: Многоголосый закадровый, профессиональный -NewStudio
    Автор перевода: Weirdie
    Видео: XviD, 720x400 (16: 9), ~1450 kb/s
    Аудио Rus: MPEG Layer 3, 48, 0 kHz, 2 ch, 128 kb/s - многоголосый закадровый
    Аудио Eng: MPEG Layer 3, 48, 0 kHz, 2 ch, 128 kb/s - оригинал
    Общее
    Полное имя : D: Викинги (сезон любимого сериала 4) Vikings (2016) WEB-DLRip - NewStudioVikings.S04E01.WEBDLRip.Rus.Eng.DV.NewStudio.avi
    Формат : AVI
    Формат/Информация : Audio Video Interleave
    Размер файла : 541 Мбайт
    Продолжительность : 43 м.
    Общий поток : 1733 Кбит/сек
    Программа кодирования : VirtualDubModRus 1.5.10.2 (build 2542/release)
    Библиотека кодирования : VirtualDubMod build 2542/release
    Видео
    Идентификатор : 0
    Формат : MPEG-4 Visual
    Профиль формата : Advanced Simple@L5
    Параметр BVOP формата : 2
    Параметр QPel формата : Нет
    Параметр GMC формата : Без точки перехода
    Параметр матрицы формата : Default (MPEG)
    Идентификатор кодека : XVID
    Идентификатор кодека/Подсказка : XviD
    Продолжительность : 43 м.
    Битрейт : 1463 Кбит/сек
    Ширина : 720 пикселей
    Высота : 400 пикселей
    Соотношение сторон : 16: 9
    Частота кадров : 23, 976 (23976/1000) кадра/сек
    Цветовое пространство : YUV
    Субдискретизация насыщенности : 4: 2: 0
    Битовая глубина : 8 бит
    Тип развёртки : Прогрессивная
    Метод сжатия : С потерями
    Бит/(Пиксели*Кадры) : 0.212
    Размер потока : 457 Мбайт (84%)
    Библиотека кодирования : XviD 73
    Аудио #1
    Идентификатор : 1
    Формат : MPEG Audio
    Версия формата : Version 1
    Профиль формата : Layer 3
    Режим : Joint stereo
    Расширение режима : MS Stereo
    Идентификатор кодека : 55
    Идентификатор кодека/Подсказка : MP3
    Продолжительность : 43 м.
    Вид битрейта : Постоянный
    Битрейт : 128 Кбит/сек
    Каналы : 2 канала
    Частота : 48, 0 КГц
    Метод сжатия : С потерями
    Размер потока : 40, 0 Мбайт (7%)
    Выравнивание : Соединение по промежуткам
    Продолжительность промежутка : 42 мс. (1, 00 видеокадр)
    Время предзагрузки промежутка : 504 мс.
    Библиотека кодирования : LAME3.99.5№дЙ9Сєъ
    Аудио #2
    Идентификатор : 2
    Формат : MPEG Audio
    Версия формата : Version 1
    Профиль формата : Layer 3
    Режим : Joint stereo
    Расширение режима : MS Stereo
    Идентификатор кодека : 55
    Идентификатор кодека/Подсказка : MP3
    Продолжительность : 43 м.
    Вид битрейта : Постоянный
    Битрейт : 128 Кбит/сек
    Каналы : 2 канала
    Частота : 48, 0 КГц
    Метод сжатия : С потерями
    Размер потока : 40, 0 Мбайт (7%)
    Выравнивание : Соединение по промежуткам
    Продолжительность промежутка : 42 мс. (1, 00 видеокадр)
    Время предзагрузки промежутка : 504 мс.
    Библиотека кодирования : LAMEЄЄЄҐkЋ=нХє2qVR


    Скриншоты для ознакомления




    Онлайн видео Викинги



    Викинги/Vikings (2016) WEB-DLRip (сезон 4, серии 1 из 20) NewStudio (обновляемая)
    загрузка...
    Рейтинг →
     (голосов: 1, оценка 5/5, голосовать можно 1 раз )

    Другие торренты по теме:

  • Викинги / Vikings (2014) BD-Remux [1080p] (сезон 2, серии 1-10 из 10) (AlexFilm, NewStudio, LostFilm, BaibaKo) скачать через торрент бесплатно
  • Викинги / Vikings (2015) HDTVRip [H.264 / 720p-LQ] (сезон 3, серии 1 из 10) (AlexFilm) (обновляемая)
  • Викинги / Vikings (2015) HDTVRip (сезон 3, серии 1 из 10) AlexFilm (обновляемая)
  • Викинги / Vikings (2015) WEB-DL [H.264 / 1080p-LQ] (сезон 3, серии 1 из 10) LostFilm (обновляемая)
  • Викинги / Vikings (2015) WEB-DLRip (сезон 3, серии 1 из 10) LostFilm (обновляемая)
  • Викинги / Vikings (2013-2015) WEB-DLRip [H.264] (сезон 1-3, серии 1-20 из 29) (BaibaKo) (обновляемая)
  • Викинги / Vikings (2015) WEB-DL [H.264 / 1080p-LQ] (сезон 3, серии 1 из 10) (BaibaKo) (обновляемая) скачать через торрент бесплатно
  • Викинги / Vikings (2015) WEB-DL [H.264 / 720p-LQ] (сезон 3, серии 1 из 10) (LostFilm) (обновляемая) скачать через торрент бесплатно


    • Комментарии (0):

      Информация

      Информация

        Посетители, находящиеся в группе Гости, не могут оставлять комментарии в данной новости.

        ↓ Меню




        ↓ Опрос

        Вы добавили сайт в закладки?
        Да
        Нет


        Top 10 за месяц (Фильмы)