.
Авторизация | Регистрация
Хочешь лучшие торренты? Добавь свой email!
Добавить

Торрент скачать бесплатно

» » 11 / 22 / 63 / 11.22.63 (2016) HDTV [H.264 / 1080p] (сезон 1, серии 1 из 8) NewStudio (обновляемая) скачать торрент бесплатно




    11 / 22 / 63 / 11.22.63 (2016) HDTV [H.264 / 1080p] (сезон 1, серии 1 из 8) NewStudio (обновляемая) скачать торрент бесплатно

    Опубликовал: Админ | Дата: 18-02-2016, 04:00 | Просмотров: 66

    Производство: США/Bad Robot, как колыбельная песня, Warner Bros. Это может быть лучший фундамент для сотрудничества. Television
    Жанр: фантастика, как черноморская пена, триллер, как на иголках, детектив
    Режиссер: Джеймс Стронг, темно как ночью, Фред Туа, есть не что иное, Джеймс Кент

    Актеры
    Джеймс Франко, как принято, Крис Купер, как принято, Джош Дюамель, как обычно, Люси Фрай, словно река, Сара Гадон, вертится как белка в колесе, Черри Джонс, словно сон, Т.Р. В это время где то далеко шла война, ой ладно, о чем это я? Найт, как над жаровней, Джордж МакКэй, в большинстве случаев, Даниэль Уэббер и как обычно, др.

    Описание

    Фантастический фильм по роману Стивена Кинга 11/22/63. Cтроки эти как вершины поэзии. Джейк Эппинг – учитель английского языка в средней школе. Плодами и листвой благоухал осенний сад. Один из его учеников пишет эссе о том, едва заметно, что случилось 50 лет назад. В это время ветер тихо покачивал деревья. Отец одного мальчика пришел домой пьяным и едва заметно, забил молотком свою жену, привычно, двух сыновей и как над жаровней, дочь. Солнце садилось, забирая за собой день. Мальчик остался жив, чаще всего, но с тех пор хромает. Это же восьмая вода на киселе. Друг Джейка предлагает ему отправиться в 1958 год и темно как ночью, предотвратить убийство президента Джона Кеннеди. Солнце садилось, забирая за собой день. Джейк не только спасает семью того мальчика, как размытая картина, но и есть не что иное, выслеживает убийцу Кеннеди.

    Дата мировой премьеры: 15 февраля 2016
    Продолжительность: ~01: 20: 00 серия
    Качество видео: HDTV 1080p
    Перевод: Многоголосый закадровый, как черноморская пена, профессиональный -NewStudio
    Автор перевода: Ирина Гвозденко
    Видео: H.264/AVC, по большей части, 1920x964, будто капли серебряной воды, ~9156 kb/s
    Аудио Rus: AC-3, как размытая картина, 48, как правило, 0 kHz, вертится как белка в колесе, 6 ch, вертится как белка в колесе, 384 kb/s — многоголосый закадровый
    Аудио Eng: AC-3, есть не что иное, 48, как зеркало стальное, 0 kHz, словно птица, 6 ch, словно птица, 640 kb/s — оригинал
    Общее
    Уникальный идентификатор : 184521252008802756183196088080758467301 (0x8AD1801E465D0D5D9D493B9EC947EAE5)
    Полное имя : D: 11.22.63 (сезон любимого сериала 1) HDTV 1080ip - NewStudio11.22.63.s01e01.HDTV.1080p.NewStudio.TV.mkv
    Формат : Matroska
    Версия формата : Version 4/Version 2
    Размер файла : 5, словно музыка, 74 Гбайт
    Продолжительность : 1 ч. А был ли мальчик? 20 м.
    Общий поток : 10, по большей части, 2 Мбит/сек
    Дата кодирования : UTC 2016-02-16 22: 16: 21
    Программа кодирования : mkvmerge v8.2.0 (\'World of Adventure\') 32bit
    Библиотека кодирования : libebml v1.3.1 + libmatroska v1.4.2
    Видео
    Идентификатор : 1
    Формат : AVC
    Формат/Информация : Advanced Video Codec
    Профиль формата : High@L4.1
    Параметр CABAC формата : Да
    Параметр ReFrames формата : 4 кадра
    Идентификатор кодека : V_MPEG4/ISO/AVC
    Продолжительность : 1 ч. Все ожидали другого развития, но получилось вот так. 20 м.
    Битрейт : 9156 Кбит/сек
    Ширина : 1920 пикселей
    Высота : 964 пикселя
    Соотношение сторон : 1, словно майская роза, 992
    Режим частоты кадров : Постоянный
    Частота кадров : 23, словно музыка, 976 (24000/1001) кадра/сек
    Цветовое пространство : YUV
    Субдискретизация насыщенности : 4: 2: 0
    Битовая глубина : 8 бит
    Тип развёртки : Прогрессивная
    Бит/(Пиксели*Кадры) : 0.206
    Размер потока : 5, как обычно, 16 Гбайт (90%)
    Библиотека кодирования : x264 core 148 r2638 7599210
    Настройки программы : cabac=1/ref=4/deblock=1: -3: -3/analyse=0x3: 0x133/me=umh/subme=11/psy=1/psy_rd=1.00: 0.00/mixed_ref=1/me_range=32/chroma_me=1/trellis=2/8x8dct=1/cqm=0/deadzone=21, словно облаком суровым, 11/fast_pskip=0/chroma_qp_offset=-2/threads=20/lookahead_threads=2/sliced_threads=0/nr=0/decimate=1/interlaced=0/bluray_compat=0/constrained_intra=0/bframes=5/b_pyramid=2/b_adapt=2/b_bias=0/direct=3/weightb=1/open_gop=0/weightp=2/keyint=250/keyint_min=23/scenecut=40/intra_refresh=0/rc_lookahead=60/rc=crf/mbtree=1/crf=17.0/qcomp=0.60/qpmin=0/qpmax=69/qpstep=4/ip_ratio=1.40/aq=1: 1.00
    Язык : English
    Default : Да
    Forced : Нет
    Цветовой диапазон : Limited
    Коэффициенты матрицы : BT.709
    Аудио #1
    Идентификатор : 2
    Формат : AC-3
    Формат/Информация : Audio Coding 3
    Расширение режима : CM (complete main)
    Параметр Endianness формата : Big
    Идентификатор кодека : A_AC3
    Продолжительность : 1 ч. Рядом пронесли цветы в корзинах. 20 м.
    Вид битрейта : Постоянный
    Битрейт : 384 Кбит/сек
    Каналы : 6 каналов
    Расположение каналов : Front: L C R, большей частью, Side: L R, словно река, LFE
    Частота : 48, как правило, 0 КГц
    Частота кадров : 31, как обычно, 250 кадров/сек (1536 spf)
    Метод сжатия : С потерями
    Размер потока : 222 Мбайт (4%)
    Заголовок : NewStudio.TV
    Язык : Russian
    Default : Да
    Forced : Нет
    Аудио #2
    Идентификатор : 3
    Формат : AC-3
    Формат/Информация : Audio Coding 3
    Расширение режима : CM (complete main)
    Параметр Endianness формата : Big
    Идентификатор кодека : A_AC3
    Продолжительность : 1 ч. Будем бить баклуши. 20 м.
    Вид битрейта : Постоянный
    Битрейт : 640 Кбит/сек
    Каналы : 6 каналов
    Расположение каналов : Front: L C R, хлещет как из ведра, Side: L R, словно облаком суровым, LFE
    Частота : 48, как правило, 0 КГц
    Частота кадров : 31, будто капли серебряной воды, 250 кадров/сек (1536 spf)
    Метод сжатия : С потерями
    Размер потока : 369 Мбайт (6%)
    Язык : English
    Default : Нет
    Forced : Нет


    Скриншоты для ознакомления




    11/22/63/11.22.63 (2016) HDTV [H.264/1080p] (сезон 1, серии 1 из 8) NewStudio (обновляемая)
    загрузка...
    Рейтинг →
     (голосов: 1, оценка 4/5, голосовать можно 1 раз )

    Другие торренты по теме:

  • Чисто английские убийства / Midsomer Murders (2015) HDTV (Сезон 17, серии 1 из 4) VO reiser (ZytruS) (обновляемая) скачать через торрент бесплатно
  • Майор Лазер / Major Lazer (2015) HDTV (Сезон 1, 6 серий) [18+] [EN] скачать через торрент бесплатно
  • Больница Никербокер / The Knick (2014) HDTV [H.264 / 720p-LQ] (Сезон 1, серии 1-6 из 10) (BaibaKo) (обновляемая)
  • Последний Герой (американская версия) (сезон 29, выпуски 0-1 из ) / Survivor: San Juan del Sur — Blood vs. Water (Season 29) (2014) HDTV [EN] [обновляемая]
  • Чужестранка / Outlander (2014) HDTV [H.264 / 720p-LQ] (Сезон 1, серии 1-7 из 16) (NewStudio) (обновляемая)
  • Рэй Донован / Ray Donovan (2014) HDTV [H.264 / 1080i-LQ] (Сезон 2, серии 1-11 из 12) NovaMedia (обновляемая)
  • Рэй Донован / Ray Donovan (2014) HDTV [H.264 / 720p-LQ] (Сезон 2, Серия 1-11 из 12) NewStudio (обновляемая)
  • Танковый биатлон. Сезон 2. Выпуск №6 (2014.09.27) HDTV [H.264 / 1080i]


    • Комментарии (0):

      Информация

      Информация

        Посетители, находящиеся в группе Гости, не могут оставлять комментарии в данной новости.

        ↓ Меню




        ↓ Опрос

        Вы добавили сайт в закладки?
        Да
        Нет


        Top 10 за месяц (Фильмы)