.
Авторизация | Регистрация
Хочешь лучшие торренты? Добавь свой email!
Добавить

Торрент скачать бесплатно

» » 11 / 22 / 63 / 11.22.63 (2016) HDTVRip [H.264 / 720p-LQ] (сезон 1, серии 1 из 8) BaibaKo (обновляемая) торрент скачать бесплатно




    11 / 22 / 63 / 11.22.63 (2016) HDTVRip [H.264 / 720p-LQ] (сезон 1, серии 1 из 8) BaibaKo (обновляемая) торрент скачать бесплатно

    Опубликовал: Админ | Дата: 18-02-2016, 04:00 | Просмотров: 99

    Производство: США/Warner Bros. Television
    Жанр: фантастика, триллер, детектив
    Режиссер: Джеймс Стронг, Фред Туа, Джеймс Кент

    Актеры
    Джеймс Франко, Джош Дюамель, Сара Гадон, Майкл Искиердо, Кевин Дэннис, Даниэль Уэббер, Скотт Си Уилсон, Джошуа Холмс, Эрика Андерсон и др.

    Описание

    Фантастический сериал по роману Стивена Кинга 11.22.63.
    Джейк Эппинг – учитель английского языка в средней школе. Волк в овечьей шкуре, сказал кто то из толпы, к чему не понятно. Один из его учеников пишет эссе о том, что случилось 50 лет назад. Отец одного мальчика пришел домой пьяным и забил молотком свою жену, двух сыновей и дочь. Мальчик остался жив, но с тех пор хромает. Друг Джейка предлагает ему отправиться в 1958 год и предотвратить убийство президента Джона Кеннеди. Джейку предстоит не только спасти семью того мальчика, но и выследить убийцу Кеннеди.

    Дата мировой премьеры: 17.01.2016
    Продолжительность: ~00: 43: 00 серия
    Качество видео: HDTVRip
    Перевод: Многоголосый закадровый, профессиональный -BaibaKo
    Автор перевода: Янина Галицкая
    Озвучка: Светлана Доманова, Татьяна Оболевич, Валерий Смекалов и Олекса Мельник
    Видео: AVC/H.264, 1280x640, ~2340 kb/s
    Аудио Rus: AC3, 48, 0 kHz, 6 ch, 640 kb/s - многоголосый закадровый
    Аудио Eng: AC3, 48, 0 kHz, 6 ch, 640 kb/s — оригинал
    Код:
    General
    Unique ID : 210921111221766747252462716130014560614 (0x9EADEDABA8724C249F41DD5F8AAC8166)
    Complete name : 11.22.63 [BaibaKo]11.22.63.s01e01-1.HDTV720p.Rus.Eng.BaibaKo.tv.mkv
    Format : Matroska
    Format version : Version 4/Version 2
    File size : 1.03 GiB
    Duration : 43mn 3s
    Overall bit rate : 3 431 Kbps
    Encoded date : UTC 2016-02-17 02:56:44
    Writing application : mkvmerge v8.5.2 (\'Crosses\') 64bit
    Writing library : libebml v1.3.3 + libmatroska v1.4.4
    Video
    ID : 1
    Format : AVC
    Format/Info : Advanced Video Codec
    Format profile :High@L4.1
    Format settings, CABAC : Yes
    Format settings, ReFrames : 9 frames
    Codec ID : V_MPEG4/ISO/AVC
    Duration : 43mn 3s
    Bit rate : 2 340 Kbps
    Width : 1 280 pixels
    Height : 640 pixels
    Display aspect ratio : 2.000
    Frame rate mode : Constant
    Frame rate : 23.976 (24000/1001) fps
    Color space : YUV
    Chroma subsampling : 4:2:0
    Bit depth : 8 bits
    Scan type : Progressive
    Bits/(Pixel*Frame) : 0.119
    Stream size : 740 MiB (70%)
    Writing library : x264 core 148 r2665 a01e339
    Encoding settings : cabac=1/ref=9/deblock=1:0:0/analyse=0x3:0x113/me=umh/subme=10/psy=1/psy_rd=1.00:0.00/mixed_ref=1/me_range=32/chroma_me=1/trellis=2/8x8dct=1/cqm=0/deadzone=21, 11/fast_pskip=1/chroma_qp_offset=-4/threads=12/lookahead_threads=1/sliced_threads=0/nr=0/decimate=1/interlaced=0/bluray_compat=0/constrained_intra=0/bframes=5/b_pyramid=2/b_adapt=2/b_bias=0/direct=1/weightb=1/open_gop=0/weightp=2/keyint=240/keyint_min=23/scenecut=40/intra_refresh=0/rc_lookahead=40/rc=2pass/mbtree=0/bitrate=2340/ratetol=1.0/qcomp=0.60/qpmin=0/qpmax=69/qpstep=4/cplxblur=20.0/qblur=0.5/vbv_maxrate=62500/vbv_bufsize=78125/nal_hrd=none/filler=0/ip_ratio=1.40/pb_ratio=1.30/aq=1:1.00
    Default : No
    Forced : No
    Audio #1
    ID : 2
    Format : AC-3
    Format/Info : Audio Coding 3
    Mode extension : CM (complete main)
    Format settings, Endianness : Big
    Codec ID : A_AC3
    Duration : 43mn 3s
    Bit rate mode : Constant
    Bit rate : 640 Kbps
    Channel(s) : 6 channels
    Channel positions : Front: L C R, Side: L R, LFE
    Sampling rate : 48.0 KHz
    Frame rate : 31.250 fps (1536 spf)
    Compression mode : Lossy
    Stream size : 197 MiB (19%)
    Language : Russian
    Default : Yes
    Forced : No
    Audio #2
    ID : 3
    Format : AC-3
    Format/Info : Audio Coding 3
    Mode extension : CM (complete main)
    Format settings, Endianness : Big
    Codec ID : A_AC3
    Duration : 43mn 3s
    Bit rate mode : Constant
    Bit rate : 640 Kbps
    Channel(s) : 6 channels
    Channel positions : Front: L C R, Side: L R, LFE
    Sampling rate : 48.0 KHz
    Frame rate : 31.250 fps (1536 spf)
    Compression mode : Lossy
    Stream size : 119 MiB (11%)
    Language : English
    Default : No
    Forced : No


    Скриншоты для ознакомления




    11/22/63/11.22.63 (2016) HDTVRip [H.264/720p-LQ] (сезон 1, серии 1 из 8) BaibaKo (обновляемая)
    загрузка...
    Рейтинг →
     (голосов: 1, оценка 3/5, голосовать можно 1 раз )

    Другие торренты по теме:

  • Вавилон-Берлин / Babylon Berlin (2017) HDTVRip (сезон 1, серии 1-2 из 8) SDI Media (обновляемая)
  • NGW: Замбези / The Zambezi (2010) HDTVRip [H.264 / 720p-LQ] (эпизоды 1-2 из 2)
  • Великие мастера живописи / Les grandes maitres de la peinture (2015) HDTVRip [H.264 / 720p-LQ] (серии 10 из 15) (Обновляемая)
  • Сверхъестественное / Supernatural (2017) HDTVRip (сезон 13, серии 1 из 23) [EN / RU, EN Sub] (обновляемая)
  • Сверхъестественное / Supernatural (2017) HDTVRip [H.264 / 720p-LQ] (сезон 13, серии 1 из 23) [EN / RU, EN Sub] (обновляемая)
  • Сверхъестественное / Supernatural (2017) HDTVRip [H.264 / 1080p-LQ] (сезон 13, серии 1 из 23) [EN / RU, EN Sub] (обновляемая)
  • Футбол. Лига Чемпионов УЕФА 2017-2018. Группа G. 3-й тур. РБ Лейпциг (Германия) – Порту (Португалия) (17.10.2017) HDTVRip [H.264 / 720p-LQ] [hand made 50fps]
  • Футбол. Лига Чемпионов УЕФА 2017-2018. Группа G. 3-й тур. Монако (Монако) – Бешикташ (Турция) (17.10.2017) HDTVRip [H.264 / 720p-LQ] [hand made 50fps]


    • Комментарии (0):

      Информация

      Информация

        Посетители, находящиеся в группе Гости, не могут оставлять комментарии в данной новости.

        ↓ Меню




        ↓ Опрос

        Вы добавили сайт в закладки?
        Да
        Нет


        Top 10 за месяц (Фильмы)