.
Авторизация | Регистрация
Хочешь лучшие торренты? Добавь свой email!
Добавить

Торрент скачать бесплатно

» » Новая жизнь (2013) SATRip (серии 1-6 из 10) (обновляемая) торрент скачать бесплатно




    Новая жизнь (2013) SATRip (серии 1-6 из 10) (обновляемая) торрент скачать бесплатно

    Опубликовал: Админ | Дата: 18-02-2016, 04:00 | Просмотров: 99

    Производство: Россия/Кинокомпания Все хорошо
    Жанр: мелодрама
    Режиссер: Константин Худяков

    Актеры
    Сергей Пускепалис, Алексей Бардуков, Олег Басилашвили, Виктор Сухоруков, Алёна Бабенко, Мария Звонарёва, Анна Каменкова, Юрий Беляев и др.

    Описание

    Действия фильма разворачиваются в Москве и провинциальном городе. Наши Дни. Сюжет фильма повествует о проблемах отцов и детей, о сложностях становления личности, о жизненных препятствиях, которые главным героям приходится преодолевать на своем пути, о любви и о том, какую цену приходится платить за свои ошибки...
    Дата премьеры в России: 15 февраля 2015 (Дом кино премиум)
    Продолжительность: ~00: 50: 00 серия
    Качество видео: SATRip
    Видео: Xvid, 720x400 (16: 9), ~1800 Кбит/сек
    Аудио: MP3, 2 канала, 128 Кбит/с, CBR
    Код:

    Общее
    Полное имя : D:МОЯtorrentNovaja.zhizn.SATRipNovaja.zhizn.01.SATRip.avi
    Формат : AVI
    Формат/Информация : Audio Video Interleave
    Размер файла : 697 Мбайт
    Продолжительность : 50 м.
    Общий поток : 1937 Кбит/сек
    Программа кодирования : VirtualDubMod 1.5.10.3 |www.virtualdub-fr.org|| (build 2550/release)
    Библиотека кодирования : VirtualDubMod build 2550/release
    Видео
    Идентификатор : 0
    Формат : MPEG-4 Visual
    Профиль формата : Advanced Simple@L5
    Параметр BVOP формата : 2
    Параметр QPel формата : Нет
    Параметр GMC формата : Без точки перехода
    Параметр матрицы формата : Default (MPEG)
    Идентификатор кодека : XVID
    Идентификатор кодека/Подсказка : XviD
    Продолжительность : 50 м.
    Битрейт : 1800 Кбит/сек
    Ширина : 720 пикселей
    Высота : 400 пикселей
    Соотношение сторон : 16:9
    Частота кадров : 25, 000 кадров/сек
    Цветовое пространство : YUV
    Субдискретизация насыщенности : 4:2:0
    Битовая глубина : 8 бит
    Тип развёртки : Прогрессивная
    Метод сжатия : С потерями
    Бит/(Пиксели*Кадры) : 0.250
    Размер потока : 647 Мбайт (93%)
    Библиотека кодирования : XviD 1.2.1 (UTC 2008-12-04)
    Аудио
    Идентификатор : 1
    Формат : MPEG Audio
    Версия формата : Version 1
    Профиль формата : Layer 3
    Режим : Joint stereo
    Расширение режима : MS Stereo
    Идентификатор кодека : 55
    Идентификатор кодека/Подсказка : MP3
    Продолжительность : 50 м.
    Вид битрейта : Постоянный
    Битрейт : 128 Кбит/сек
    Каналы : 2 канала
    Частота : 48, 0 КГц
    Метод сжатия : С потерями
    Размер потока : 46, 0 Мбайт (7%)
    Выравнивание : Соединение по промежуткам
    Продолжительность промежутка : 40 мс. (1, 00 видеокадр)
    Время предзагрузки промежутка : 504 мс.
    Библиотека кодирования : LAME3.99r
    Настройки программы : -m j -V 4 -q 9 -lowpass 17 -b 128


    Скриншоты для ознакомления




    Онлайн видео Новая жизнь (2013) SATRip (серии 1



    Новая жизнь (2013) SATRip (серии 1-6 из 10) (обновляемая)
    загрузка...
    Рейтинг →
     (голосов: 1, оценка 5/5, голосовать можно 1 раз )

    Другие торренты по теме:

  • X-Tension: New Life / X: Мобилизация: Новая жизнь (2000) [Ru] (2.2 / mod 1.2.1) Repack / Mod aL скачать через торрент бесплатно
  • Шеф. Новая жизнь (2015) SATRip (сезон 3, серии 1-4 из 32) (обновляемая) скачать через торрент бесплатно
  • Шеф. Новая жизнь (2015) SATRip [H.264] (серии 1-4 из 32) (обновляемая) скачать через торрент бесплатно
  • Шеф. Новая жизнь (2015) HDTVRip [H.264 / 720p-LQ] (сезон 3, серии 1-32 из 32) скачать через торрент бесплатно
  • Шеф. Новая жизнь (2015) HDTVRip [H.264] (сезон 3, серии 1-32 из 32) скачать через торрент бесплатно
  • Шеф.Новая жизнь (2015) HDTVRip (сезон 3, серий 1-32 из 32)
  • Новая жизнь (2013) SATRip [H.264] (серии 1-4 из 10) (обновляемая)
  • Новая жизнь / New Life (2016) WEB-DLRip


    • Комментарии (0):

      Информация

      Информация

        Посетители, находящиеся в группе Гости, не могут оставлять комментарии в данной новости.

        ↓ Меню




        ↓ Опрос

        Вы добавили сайт в закладки?
        Да
        Нет


        Top 10 за месяц (Фильмы)