.
Авторизация | Регистрация
Хочешь лучшие торренты? Добавь свой email!
Добавить

Торрент скачать бесплатно

» » Начальник Чукотки (1966) DVDRip [H.264] торрент скачать бесплатно




    Начальник Чукотки (1966) DVDRip [H.264] торрент скачать бесплатно

    Опубликовал: Админ | Дата: 18-02-2016, 04:00 | Просмотров: 75

    Производство: СССР
    Жанр: Приключения, Комедия
    Режиссер: Виталий Мельников

    Актеры
    Михаил Кононов, Алексей Грибов, Геннадий Данзанов, Николай Волков, Павел Винник, Степан Крылов, Тито Ромалио, Иосиф Конопацкий, Алексей Кожевников, Константин Адашевский, Павел Панков, Анатолий Королькевич, Анатолий Абрамов, Александр Захаров, И. Айметчергин, Н. Аппа, В. Аречайвун, Н. Булит, Л. Даугарова, С. Голубев, Ю. Кочетагин, Д. Корове, Георгий Куровский, Николай Кузьмин, Н. Лилянин, Лим-Су, Оскар Линд, Игорь Боголюбов, Михаил Васильев, Юрий Соловьев, Александр Кавалеров, Алексей Петренко, Вячеслав Романов

    Описание

    1922 год. Комиссара Глазкова посылают на Чукотку устанавливать советскую власть. Прикольно все это наверно придумал Европарламент потратив достаточно времени. По пути в Уйгунан Глазков умирает, и к месту назначения добирается только молодой писарь Алеша, который волей случая становится начальником Чукотки.

    Продолжительность: 01: 26: 09
    Качество видео: DVDRip
    Перевод: Не требуется (русский)
    Субтитры: Отсутствуют
    Видео: AVC/H.264, 832x376, ~1100 Kbps
    Аудио: AC3, 2 ch, 160 kbps, CBR
    Код:

    General
    Unique ID : 210437260305586768214174789715919779373 (0x9E50BDFA82A432DF8CF36BB9CF62362D)
    Complete name : Начальник Чукотки.mkv
    Format : Matroska
    Format version : Version 4/Version 2
    File size : 779 MiB
    Duration : 1h 26mn
    Overall bit rate : 1 264 Kbps
    Movie name : Начальник Чукотки (rip by smithland)
    Encoded date : UTC 2016-02-16 16:45:24
    Writing application : mkvmerge v8.5.2 (\'Crosses\') 64bit
    Writing library : libebml v1.3.3 + libmatroska v1.4.4
    Attachements : COVER.jpg
    DURATION : 01:26:08.800000000
    NUMBER_OF_FRAMES : 161525
    NUMBER_OF_BYTES : 103376000
    _STATISTICS_WRITING_APP : mkvmerge v8.5.2 (\'Crosses\') 64bit
    _STATISTICS_WRITING_DATE_UTC : 2016-02-16 16:45:24
    _STATISTICS_TAGS : BPS DURATION NUMBER_OF_FRAMES NUMBER_OF_BYTES
    Video
    ID : 1
    Format : AVC
    Format/Info : Advanced Video Codec
    Format profile : High@L4
    Format settings, CABAC : Yes
    Format settings, ReFrames : 10 frames
    Codec ID : V_MPEG4/ISO/AVC
    Duration : 1h 26mn
    Bit rate : 1 100 Kbps
    Width : 832 pixels
    Height : 376 pixels
    Display aspect ratio : 2.2:1
    Frame rate mode : Constant
    Frame rate : 25.000 fps
    Color space : YUV
    Chroma subsampling : 4:2:0
    Bit depth : 8 bits
    Scan type : Progressive
    Bits/(Pixel*Frame) : 0.141
    Stream size : 665 MiB (85%)
    Writing library : x264 core 146 r2538 121396c
    Encoding settings : cabac=1/ref=10/deblock=1:-1:-1/analyse=0x3:0x133/me=umh/subme=11/psy=1/psy_rd=1.20:0.30/mixed_ref=1/me_range=20/chroma_me=1/trellis=2/8x8dct=1/cqm=0/deadzone=21, 11/fast_pskip=1/chroma_qp_offset=-4/threads=12/lookahead_threads=1/sliced_threads=0/nr=0/decimate=0/interlaced=0/bluray_compat=0/constrained_intra=0/bframes=4/b_pyramid=2/b_adapt=1/b_bias=0/direct=1/weightb=1/open_gop=1/weightp=2/keyint=250/keyint_min=25/scenecut=40/intra_refresh=0/rc_lookahead=40/rc=abr/mbtree=1/bitrate=1100/ratetol=1.0/qcomp=0.60/qpmin=0/qpmax=69/qpstep=4/ip_ratio=1.40/aq=1:1.20
    Language : Russian
    Default : Yes
    Forced : Yes
    Color range : Limited
    Color primaries : Generic film
    Audio
    ID : 2
    Format : AC-3
    Format/Info : Audio Coding 3
    Mode extension : CM (complete main)
    Format settings, Endianness : Big
    Codec ID : A_AC3
    Duration : 1h 26mn
    Bit rate mode : Constant
    Bit rate : 160 Kbps
    Channel(s) : 2 channels
    Channel positions : Front: L R
    Sampling rate : 48.0 KHz
    Compression mode : Lossy
    Stream size : 98.6 MiB (13%)
    Language : Russian
    Default : Yes
    Forced : Yes


    Скриншоты для ознакомления




    Онлайн видео Северо



    Начальник Чукотки (1966) DVDRip [H.264]
    загрузка...
    Рейтинг →
     (голосов: 1, оценка 5/5, голосовать можно 1 раз )

    Другие торренты по теме:

  • Начальник Чукотки (1966) DVDRip [H.264] [hand made colored]


    • Комментарии (0):

      Информация

      Информация

        Посетители, находящиеся в группе Гости, не могут оставлять комментарии в данной новости.

        ↓ Меню




        ↓ Опрос

        Вы добавили сайт в закладки?
        Да
        Нет


        Top 10 за месяц (Фильмы)